<?xml version="1.0" standalone="no"?><!DOCTYPE svg PUBLIC "-//W3C//DTD SVG 1.1//EN" "http://www.w3.org/Graphics/SVG/1.1/DTD/svg11.dtd" ><svg xmlns="http://www.w3.org/2000/svg"><metadata></metadata><defs><font id="DIN-RegularAlternate:1166835789" horiz-adv-x="1179"><font-face font-family="DIN Alternate" font-weight="500" font-stretch="normal" units-per-em="1000" panose-1="0 0 0 0 0 0 0 0 0 0" ascent="985" descent="-226" x-height="0" bbox="-104 -226 1115 985" underline-thickness="51" underline-position="-139" unicode-range="U+0020-fb02" /><missing-glyph horiz-adv-x="249"  /><glyph glyph-name="" unicode="!" d="M216 712 l-84 0 l13 -512 l58 0 l13 512 ZM224 47 q0 22 -14 36 q-14 14 -36 14 q-22 0 -36 -14 q-14 -14 -15 -36 q1 -21 15 -35 q14 -14 36 -15 q22 1 36 15 q14 14 14 35 l0 0 Z" /><glyph glyph-name="" unicode="&quot;" d="M335 542 l0 170 l-79 0 l0 -170 l79 0 ZM167 542 l0 170 l-79 0 l0 -170 l79 0 Z" /><glyph glyph-name="" unicode="#" d="M602 432 l0 66 l-87 0 l34 215 l-73 0 l-34 -215 l-159 0 l35 215 l-75 0 l-34 -215 l-101 0 l0 -66 l92 0 l-23 -141 l-100 0 l0 -64 l89 0 l-36 -227 l74 0 l35 227 l160 0 l-36 -227 l74 0 l36 227 l99 0 l0 64 l-89 0 l23 141 l96 0 ZM432 432 l-23 -141 l-159 0 l23 141 l159 0 Z" /><glyph glyph-name="" unicode="$" d="M540 196 q0 44 -16 80 q-16 36 -45 61 q-22 19 -51 31 q-29 11 -78 19 l-31 5 l0 259 q45 -3 79 -19 q33 -15 61 -41 l49 49 q-40 37 -85 55 q-44 19 -101 22 l0 89 l-60 0 l0 -89 q-95 -8 -147 -61 q-53 -53 -54 -139 q0 -43 14 -76 q14 -33 41 -57 q21 -19 55 -34 q34 -16 75 -20 l20 -2 l0 -265 q-50 2 -92 20 q-41 18 -80 57 l-52 -52 q46 -46 98 -69 q52 -22 122 -25 l0 -108 l60 0 l0 110 q100 8 159 60 q58 52 59 140 l0 0 ZM266 399 q-26 4 -51 13 q-26 9 -47 26 q-16 14 -24 35 q-8 21 -8 47 q0 56 34 91 q33 34 96 40 l0 -252 ZM464 194 q-1 -58 -39 -92 q-38 -34 -106 -39 l0 257 q31 -4 58 -10 q27 -6 52 -27 q17 -15 26 -38 q9 -23 9 -51 l0 0 Z" /><glyph glyph-name="" unicode="%" d="M769 128 l0 105 q-1 62 -39 98 q-37 36 -96 37 q-60 -1 -97 -37 q-37 -36 -38 -98 l0 -105 q1 -62 38 -98 q37 -36 97 -37 q59 1 96 37 q38 36 39 98 l0 0 ZM614 712 l-60 0 l-334 -712 l60 0 l334 712 ZM335 479 l0 105 q-1 62 -39 98 q-37 36 -96 37 q-60 -1 -97 -37 q-37 -36 -38 -98 l0 -105 q1 -62 38 -97 q37 -36 97 -37 q59 1 96 37 q38 35 39 97 l0 0 ZM712 130 q0 -40 -19 -63 q-19 -24 -59 -24 q-41 0 -60 23 q-18 23 -18 64 l0 101 q0 41 18 64 q19 23 60 23 q40 0 59 -24 q19 -23 19 -63 l0 -101 ZM278 481 q0 -40 -19 -63 q-19 -23 -59 -23 q-40 0 -59 23 q-19 22 -19 63 l0 101 q0 41 18 64 q19 23 60 23 q40 0 59 -24 q19 -23 19 -63 l0 -101 Z" /><glyph glyph-name="" unicode="&amp;" d="M671 0 l-109 131 q34 41 50 96 q16 54 16 122 l-72 0 q0 -59 -9 -95 q-10 -36 -31 -68 l-182 219 q14 10 33 23 q18 12 20 13 q34 23 56 54 q22 31 23 73 q-1 65 -44 107 q-43 42 -111 43 q-70 -1 -113 -43 q-43 -41 -44 -106 q2 -48 25 -86 q24 -38 52 -69 q-61 -37 -106 -86 q-46 -48 -48 -127 q1 -94 61 -150 q59 -56 164 -57 q85 3 137 32 q52 29 73 52 l64 -78 l95 0 ZM395 568 q-1 -30 -20 -51 q-18 -21 -44 -38 q-1 -1 -14 -10 q-14 -9 -24 -16 q-35 42 -50 68 q-14 25 -14 49 q1 37 23 60 q22 22 59 23 q37 -1 60 -24 q23 -24 24 -61 l0 0 ZM469 130 q-46 -40 -87 -55 q-41 -15 -81 -14 q-67 1 -108 39 q-41 38 -42 103 q2 59 38 96 q36 37 84 67 l196 -236 Z" /><glyph glyph-name="" unicode="&#x2019;" d="M175 628 l0 84 l-87 0 l0 -163 l87 79 Z" /><glyph glyph-name="" unicode="(" d="M234 -45 q-17 17 -31 31 q-13 15 -23 34 q-8 15 -12 36 q-4 20 -4 45 l0 510 q0 25 4 45 q4 21 12 36 q10 19 23 34 q14 14 31 31 l-49 49 q-24 -23 -41 -43 q-18 -19 -31 -43 q-13 -25 -17 -51 q-4 -26 -4 -52 l0 -522 q0 -26 4 -52 q4 -26 17 -51 q13 -24 31 -43 q17 -20 41 -43 l49 49 Z" /><glyph glyph-name="" unicode=")" d="M205 95 l0 522 q0 26 -3 52 q-4 26 -17 51 q-13 24 -31 43 q-17 20 -41 43 l-51 -51 q17 -17 31 -31 q14 -15 24 -34 q7 -15 11 -35 q3 -20 3 -44 l0 -510 q0 -24 -3 -44 q-4 -20 -11 -35 q-10 -19 -24 -34 q-14 -14 -31 -31 l51 -51 q24 23 41 43 q18 19 31 43 q13 25 17 51 q3 26 3 52 l0 0 Z" /><glyph glyph-name="" unicode="*" d="M407 472 l-120 65 l120 66 l-28 48 l-117 -71 l4 137 l-58 0 l4 -137 l-116 71 l-29 -48 l120 -66 l-120 -65 l29 -49 l116 71 l-4 -137 l58 0 l-4 137 l117 -71 l28 49 Z" /><glyph glyph-name="" unicode="+" d="M470 234 l0 67 l-175 0 l0 174 l-67 0 l0 -174 l-176 0 l0 -67 l176 0 l0 -176 l67 0 l0 176 l175 0 Z" /><glyph glyph-name="" unicode="," d="M176 -65 l0 153 l-88 0 l0 -232 l88 79 Z" /><glyph glyph-name="" unicode="-" d="M350 236 l0 67 l-274 0 l0 -67 l274 0 Z" /><glyph glyph-name="" unicode="." d="M193 54 q-1 24 -17 40 q-16 16 -40 17 q-24 -1 -40 -17 q-16 -16 -17 -40 q1 -24 17 -40 q16 -16 40 -17 q24 1 40 17 q16 16 17 40 l0 0 Z" /><glyph glyph-name="" unicode="/" d="M356 786 l-71 0 l-285 -860 l71 0 l285 860 Z" /><glyph glyph-name="" unicode="0" d="M456 190 l0 217 q-2 90 -56 142 q-54 53 -139 54 q-85 -1 -139 -54 q-54 -52 -56 -142 l0 -217 q2 -90 56 -142 q54 -53 139 -54 q85 1 139 54 q54 52 56 142 l0 0 ZM384 194 q0 -60 -32 -97 q-31 -38 -91 -39 q-60 1 -91 39 q-32 37 -32 97 l0 209 q0 60 32 97 q31 38 91 39 q60 -1 91 -39 q32 -37 32 -97 l0 -209 Z" /><glyph glyph-name="" unicode="1" d="M256 0 l0 597 l-72 0 l-133 -115 l0 -82 l133 117 l0 -517 l72 0 Z" /><glyph glyph-name="" unicode="2" d="M450 0 l0 64 l-314 0 l204 200 q41 38 66 81 q25 43 26 96 q-1 78 -53 129 q-52 51 -141 53 q-86 -2 -139 -52 q-54 -51 -56 -133 l72 0 q1 56 36 88 q35 32 87 33 q55 -1 88 -34 q33 -34 34 -85 q0 -37 -18 -70 q-18 -33 -50 -64 l-251 -242 l0 -64 l409 0 Z" /><glyph glyph-name="" unicode="3" d="M456 78 q0 134 -109 174 q48 22 72 62 q24 40 24 96 q-1 88 -54 140 q-54 52 -142 53 q-83 -1 -137 -48 q-55 -47 -63 -134 l72 0 q6 55 39 86 q32 31 89 32 q53 0 88 -33 q35 -33 36 -97 q0 -61 -31 -94 q-31 -34 -96 -35 l-14 0 l0 -63 l14 0 q72 -1 106 -37 q34 -36 34 -101 q-1 -66 -40 -101 q-38 -36 -97 -36 q-53 -1 -92 28 q-39 29 -45 95 l-72 0 q7 -96 65 -142 q58 -46 144 -46 q89 0 148 51 q59 51 61 150 l0 0 Z" /><glyph glyph-name="" unicode="4" d="M501 30 l0 66 l-91 0 l0 205 l-71 0 l0 -205 l-227 0 l265 533 l-77 0 l-264 -533 l0 -66 l303 0 l0 -153 l71 0 l0 153 l91 0 Z" /><glyph glyph-name="" unicode="5" d="M453 120 q1 51 -10 101 q-11 50 -49 90 q-21 21 -52 33 q-31 12 -71 12 q-42 0 -74 -13 q-33 -13 -54 -36 l0 226 l295 0 l0 64 l-360 0 l0 -374 l65 0 q11 32 41 51 q30 19 77 19 q75 -3 99 -54 q23 -51 21 -119 q1 -39 -6 -78 q-6 -38 -33 -67 q-16 -16 -39 -24 q-22 -9 -49 -9 q-56 0 -85 29 q-30 28 -36 82 l-72 0 q3 -38 15 -69 q12 -31 35 -55 q23 -24 60 -37 q36 -14 83 -14 q47 0 82 14 q35 14 60 39 q37 39 48 87 q10 48 9 102 l0 0 Z" /><glyph glyph-name="" unicode="6" d="M476 220 q-1 97 -55 157 q-53 59 -145 61 q-25 0 -45 -4 q-21 -4 -42 -15 l180 309 l-76 0 l-190 -335 q-27 -47 -39 -91 q-13 -45 -13 -88 q1 -100 57 -159 q57 -60 156 -61 q99 2 155 64 q56 63 57 162 l0 0 ZM404 216 q-1 -74 -39 -117 q-37 -43 -102 -44 q-65 1 -102 44 q-37 43 -38 117 q1 74 38 118 q37 43 102 44 q69 -2 105 -48 q36 -46 36 -114 l0 0 Z" /><glyph glyph-name="" unicode="7" d="M467 533 l0 64 l-422 0 l0 -176 l71 0 l0 112 l274 0 l-290 -656 l76 0 l291 656 Z" /><glyph glyph-name="" unicode="8" d="M479 196 q-1 62 -31 105 q-30 43 -76 68 q43 24 68 63 q25 40 26 95 q-2 85 -56 137 q-55 52 -141 54 q-86 -2 -141 -54 q-54 -52 -56 -137 q1 -55 26 -95 q25 -39 68 -63 q-46 -25 -76 -68 q-30 -43 -31 -105 q2 -91 61 -146 q58 -55 149 -56 q91 1 149 56 q59 55 61 146 l0 0 ZM394 526 q-1 -57 -35 -92 q-34 -34 -90 -35 q-56 1 -90 35 q-34 35 -35 92 q1 57 35 92 q34 35 90 36 q56 -1 90 -36 q34 -35 35 -92 l0 0 ZM407 197 q-1 -61 -40 -99 q-38 -39 -98 -40 q-60 1 -98 40 q-39 38 -40 99 q1 61 40 99 q38 39 98 40 q60 -1 98 -40 q39 -38 40 -99 l0 0 Z" /><glyph glyph-name="" unicode="9" d="M476 383 q-1 100 -57 160 q-57 59 -156 60 q-99 -2 -155 -64 q-56 -63 -57 -162 q1 -97 55 -157 q53 -59 145 -61 q25 0 45 4 q21 4 42 15 l-180 -309 l76 0 l190 335 q27 47 40 91 q12 45 12 88 l0 0 ZM404 381 q-1 -74 -38 -118 q-37 -43 -102 -44 q-69 2 -105 48 q-36 46 -36 114 q1 74 39 117 q37 43 102 44 q65 -1 102 -44 q37 -43 38 -117 l0 0 Z" /><glyph glyph-name="" unicode=":" d="M220 345 q-1 24 -17 40 q-16 16 -40 17 q-24 -1 -40 -17 q-16 -16 -17 -40 q1 -24 17 -40 q16 -16 40 -17 q24 1 40 17 q16 16 17 40 l0 0 ZM220 54 q-1 24 -17 40 q-16 16 -40 17 q-24 -1 -40 -17 q-16 -16 -17 -40 q1 -24 17 -40 q16 -16 40 -17 q24 1 40 17 q16 16 17 40 l0 0 Z" /><glyph glyph-name="" unicode=";" d="M220 345 q-1 24 -17 40 q-16 16 -40 17 q-24 -1 -40 -17 q-16 -16 -17 -40 q1 -24 17 -40 q16 -16 40 -17 q24 1 40 17 q16 16 17 40 l0 0 ZM207 -65 l0 153 l-88 0 l0 -232 l88 79 Z" /><glyph glyph-name="" unicode="&lt;" d="M913 210 l0 94 l-364 -365 l0 789 l-70 0 l0 -789 l-364 365 l0 -94 l399 -399 l399 399 Z" /><glyph glyph-name="" unicode="=" d="M470 320 l0 67 l-418 0 l0 -67 l418 0 ZM470 151 l0 66 l-418 0 l0 -66 l418 0 Z" /><glyph glyph-name="" unicode="&gt;" d="M913 235 l0 94 l-399 399 l-399 -399 l0 -94 l364 365 l0 -789 l70 0 l0 789 l364 -365 Z" /><glyph glyph-name="" unicode="?" d="M451 536 q-2 82 -54 131 q-52 50 -133 51 q-83 -2 -134 -53 q-52 -52 -54 -130 l72 0 q1 49 31 83 q31 34 85 36 q51 -1 83 -34 q31 -33 32 -84 q0 -25 -9 -45 q-9 -19 -24 -40 l-81 -117 q-16 -22 -23 -44 q-8 -21 -8 -50 l0 -40 l72 0 l0 39 q0 12 5 28 q4 16 13 30 l82 118 q20 28 32 57 q13 29 13 64 l0 0 ZM319 47 q0 22 -14 36 q-14 14 -36 14 q-21 0 -35 -14 q-14 -14 -15 -36 q1 -21 15 -35 q14 -14 35 -15 q22 1 36 15 q14 14 14 35 l0 0 Z" /><glyph glyph-name="" unicode="@" d="M641 -1 l0 497 q0 51 -14 91 q-14 41 -43 70 q-29 28 -67 42 q-39 14 -87 14 l-148 0 q-49 0 -87 -14 q-39 -14 -67 -42 q-28 -29 -42 -70 q-14 -40 -14 -91 l0 -336 q-1 -65 16 -101 q17 -36 62 -68 l49 49 q-34 24 -46 50 q-12 25 -11 71 l0 337 q0 40 9 66 q9 26 31 48 q21 22 48 31 q26 9 61 9 l130 0 q35 0 63 -9 q27 -10 48 -31 q21 -22 30 -48 q9 -27 9 -66 l0 -78 q-25 32 -58 47 q-33 16 -76 16 q-44 0 -80 -16 q-36 -17 -58 -46 q-23 -30 -32 -74 q-9 -44 -9 -109 q0 -67 9 -110 q10 -43 35 -74 q24 -29 59 -45 q35 -16 77 -16 q45 0 78 15 q32 16 56 47 l0 -55 l69 -1 ZM571 238 q2 -72 -21 -126 q-24 -54 -100 -57 q-76 3 -100 57 q-23 54 -21 126 q-2 72 21 126 q24 54 100 57 q76 -3 100 -57 q23 -54 21 -126 l0 0 Z" /><glyph glyph-name="" unicode="A" d="M599 0 l-261 712 l-64 0 l-262 -712 l81 0 l57 161 l311 0 l57 -161 l81 0 ZM439 227 l-266 0 l134 376 l132 -376 Z" /><glyph glyph-name="" unicode="B" d="M592 197 q-1 64 -32 107 q-32 43 -84 62 q46 17 75 58 q29 41 30 98 q-1 90 -58 140 q-57 49 -152 50 l-268 0 l0 -712 l277 0 q96 0 153 50 q58 50 59 147 l0 0 ZM505 521 q-1 -64 -40 -94 q-39 -30 -100 -30 l-186 0 l0 247 l186 0 q61 0 100 -30 q39 -30 40 -93 l0 0 ZM516 199 q-1 -61 -38 -95 q-38 -35 -105 -36 l-194 0 l0 261 l194 0 q67 -1 105 -35 q37 -34 38 -95 l0 0 Z" /><glyph glyph-name="" unicode="C" d="M525 81 l-51 51 q-32 -33 -65 -51 q-34 -19 -84 -19 q-36 0 -67 13 q-32 13 -56 37 q-33 31 -42 83 q-9 52 -8 161 q-1 109 8 161 q9 52 42 83 q24 24 56 37 q31 13 67 13 q50 0 84 -19 q33 -18 65 -51 l51 51 q-40 40 -88 63 q-48 24 -112 24 q-53 0 -99 -19 q-47 -19 -83 -55 q-48 -48 -59 -112 q-10 -65 -8 -176 q-2 -111 8 -175 q11 -65 59 -113 q36 -36 83 -55 q46 -19 99 -19 q64 0 112 24 q48 23 88 63 l0 0 Z" /><glyph glyph-name="" unicode="D" d="M597 364 q3 76 -7 150 q-10 75 -63 132 q-33 32 -78 49 q-46 17 -102 17 l-244 0 l0 -712 l244 0 q56 0 102 17 q45 17 78 49 q53 58 63 140 q10 81 7 158 l0 0 ZM521 364 q2 -68 -5 -135 q-7 -68 -42 -109 q-28 -28 -63 -40 q-36 -12 -77 -12 l-155 0 l0 576 l155 0 q41 0 77 -12 q35 -12 63 -40 q35 -40 42 -100 q7 -61 5 -128 l0 0 Z" /><glyph glyph-name="" unicode="E" d="M545 0 l0 68 l-366 0 l0 257 l312 0 l0 68 l-312 0 l0 251 l366 0 l0 68 l-442 0 l0 -712 l442 0 Z" /><glyph glyph-name="" unicode="F" d="M545 644 l0 68 l-442 0 l0 -712 l76 0 l0 314 l312 0 l0 68 l-312 0 l0 262 l366 0 Z" /><glyph glyph-name="" unicode="G" d="M574 260 l0 113 l-249 0 l0 -67 l173 0 l0 -53 q0 -40 -9 -72 q-9 -33 -30 -58 q-25 -30 -60 -45 q-35 -16 -74 -16 q-36 0 -67 13 q-32 13 -56 37 q-33 31 -42 83 q-9 52 -8 161 q-1 109 8 160 q9 52 42 83 q24 24 56 38 q31 13 67 13 q53 0 90 -21 q36 -21 72 -59 l51 51 q-46 47 -95 72 q-49 25 -118 25 q-53 0 -100 -19 q-46 -19 -82 -55 q-48 -48 -59 -112 q-10 -65 -8 -176 q-2 -111 8 -175 q11 -65 59 -113 q36 -36 83 -55 q46 -19 99 -19 q56 0 104 22 q48 21 84 60 q33 35 47 79 q14 44 14 105 l0 0 Z" /><glyph glyph-name="" unicode="H" d="M593 0 l0 712 l-76 0 l0 -319 l-338 0 l0 319 l-76 0 l0 -712 l76 0 l0 325 l338 0 l0 -325 l76 0 Z" /><glyph glyph-name="" unicode="I" d="M179 0 l0 712 l-76 0 l0 -712 l76 0 Z" /><glyph glyph-name="" unicode="J" d="M408 216 l0 496 l-76 0 l0 -486 q0 -79 -38 -121 q-38 -43 -108 -43 q-43 1 -68 14 q-25 13 -44 33 l-51 -51 q33 -33 73 -48 q39 -16 90 -16 q99 1 160 60 q60 58 62 162 l0 0 Z" /><glyph glyph-name="" unicode="K" d="M636 0 l-256 437 l224 275 l-93 0 l-332 -409 l0 409 l-76 0 l0 -712 l76 0 l0 199 l150 180 l217 -379 l90 0 Z" /><glyph glyph-name="" unicode="L" d="M543 0 l0 68 l-364 0 l0 644 l-76 0 l0 -712 l440 0 Z" /><glyph glyph-name="" unicode="M" d="M713 0 l0 712 l-76 0 l-226 -505 l-232 505 l-76 0 l0 -712 l76 0 l0 541 l198 -429 l65 0 l195 429 l0 -541 l76 0 Z" /><glyph glyph-name="" unicode="N" d="M629 0 l0 712 l-76 0 l0 -569 l-378 569 l-72 0 l0 -712 l76 0 l0 571 l378 -571 l72 0 Z" /><glyph glyph-name="" unicode="O" d="M574 356 q2 111 -8 176 q-11 64 -59 112 q-36 36 -82 55 q-47 19 -100 19 q-53 0 -100 -19 q-46 -19 -82 -55 q-48 -48 -59 -112 q-10 -65 -8 -176 q-2 -111 8 -175 q11 -65 59 -113 q36 -36 82 -55 q47 -19 100 -19 q53 0 100 19 q46 19 82 55 q48 48 59 113 q10 64 8 175 l0 0 ZM498 356 q1 -109 -8 -160 q-9 -52 -42 -83 q-24 -24 -55 -37 q-32 -14 -68 -14 q-36 0 -67 14 q-32 13 -56 37 q-33 31 -42 83 q-9 51 -8 160 q-1 109 8 160 q9 52 42 83 q24 24 56 38 q31 13 67 13 q36 0 68 -13 q31 -14 55 -38 q33 -31 42 -83 q9 -51 8 -160 l0 0 Z" /><glyph glyph-name="" unicode="P" d="M588 503 q-2 97 -62 153 q-60 55 -158 56 l-265 0 l0 -712 l76 0 l0 293 l189 0 q99 1 159 57 q59 56 61 153 l0 0 ZM512 503 q-1 -71 -42 -106 q-41 -36 -109 -36 l-182 0 l0 283 l182 0 q68 0 109 -35 q41 -35 42 -106 l0 0 Z" /><glyph glyph-name="" unicode="Q" d="M603 11 l-78 78 q35 44 43 105 q8 62 6 162 q2 111 -8 176 q-11 64 -59 112 q-36 36 -82 55 q-47 19 -100 19 q-53 0 -100 -19 q-46 -19 -82 -55 q-48 -48 -59 -112 q-10 -65 -8 -176 q-2 -111 8 -175 q11 -65 59 -113 q36 -36 82 -55 q47 -19 100 -19 q43 0 82 13 q39 12 71 37 l79 -79 l46 46 ZM498 356 q1 -84 -5 -132 q-5 -49 -24 -79 l-87 87 l-46 -46 l90 -90 q-22 -17 -47 -25 q-25 -9 -54 -9 q-36 0 -67 14 q-32 13 -56 37 q-33 31 -42 83 q-9 51 -8 160 q-1 109 8 160 q9 52 42 83 q24 24 56 38 q31 13 67 13 q36 0 68 -13 q31 -14 55 -38 q33 -31 42 -83 q9 -51 8 -160 l0 0 Z" /><glyph glyph-name="" unicode="R" d="M601 0 l-169 323 q70 15 112 64 q42 49 43 127 q-2 93 -59 145 q-57 52 -152 53 l-273 0 l0 -712 l76 0 l0 316 l171 0 l162 -316 l89 0 ZM511 513 q-1 -65 -40 -98 q-39 -32 -102 -32 l-190 0 l0 261 l190 0 q63 0 102 -33 q39 -33 40 -98 l0 0 Z" /><glyph glyph-name="" unicode="S" d="M532 196 q0 44 -15 80 q-16 36 -45 61 q-22 19 -51 31 q-30 12 -79 19 l-78 12 q-28 5 -54 15 q-25 10 -42 24 q-16 14 -24 35 q-8 21 -8 47 q0 60 39 96 q39 35 111 36 q55 0 95 -15 q39 -16 71 -46 l49 49 q-45 41 -95 60 q-50 18 -117 18 q-107 -1 -167 -55 q-60 -54 -61 -146 q0 -85 54 -133 q23 -20 57 -34 q33 -13 74 -20 l83 -13 q38 -5 57 -12 q20 -7 36 -22 q17 -15 26 -38 q8 -23 8 -51 q-1 -63 -45 -97 q-44 -35 -123 -35 q-59 -1 -105 17 q-46 17 -89 61 l-52 -52 q49 -50 107 -72 q58 -22 137 -22 q113 1 179 54 q66 53 67 148 l0 0 Z" /><glyph glyph-name="" unicode="T" d="M518 644 l0 68 l-488 0 l0 -68 l206 0 l0 -644 l76 0 l0 644 l206 0 Z" /><glyph glyph-name="" unicode="U" d="M590 235 l0 477 l-76 0 l0 -471 q-1 -82 -47 -130 q-47 -48 -126 -49 q-79 1 -125 49 q-46 48 -47 130 l0 471 l-76 0 l0 -477 q2 -108 70 -174 q68 -65 178 -67 q110 2 179 67 q68 66 70 174 l0 0 Z" /><glyph glyph-name="" unicode="V" d="M538 712 l-80 0 l-185 -576 l-185 576 l-80 0 l234 -712 l62 0 l234 712 Z" /><glyph glyph-name="" unicode="W" d="M838 712 l-81 0 l-139 -574 l-157 574 l-68 0 l-157 -574 l-139 574 l-81 0 l182 -712 l71 0 l158 570 l158 -570 l71 0 l182 712 Z" /><glyph glyph-name="" unicode="X" d="M536 0 l-220 365 l205 347 l-88 0 l-158 -281 l-158 281 l-88 0 l204 -347 l-218 -365 l86 0 l174 299 l173 -299 l88 0 Z" /><glyph glyph-name="" unicode="Y" d="M506 712 l-82 0 l-166 -341 l-168 341 l-82 0 l212 -418 l0 -294 l76 0 l0 294 l210 418 Z" /><glyph glyph-name="" unicode="Z" d="M499 0 l0 68 l-359 0 l359 580 l0 64 l-428 0 l0 -68 l342 0 l-356 -572 l0 -72 l442 0 Z" /><glyph glyph-name="" unicode="[" d="M269 -74 l0 64 l-105 0 l0 732 l105 0 l0 64 l-177 0 l0 -860 l177 0 Z" /><glyph glyph-name="" unicode="\" d="M355 -74 l-284 857 l-71 0 l284 -857 l71 0 Z" /><glyph glyph-name="" unicode="]" d="M221 -74 l0 860 l-177 0 l0 -62 l108 0 l0 -736 l-108 0 l0 -62 l177 0 Z" /><glyph glyph-name="" unicode="^" d="M465 413 l-163 305 l-66 0 l-164 -305 l74 0 l123 228 l122 -228 l74 0 Z" /><glyph glyph-name="" unicode="_" d="M537 -165 l0 51 l-537 0 l0 -51 l537 0 Z" /><glyph glyph-name="" unicode="&#x2018;" d="M175 628 l0 163 l-87 -79 l0 -84 l87 0 Z" /><glyph glyph-name="" unicode="a" d="M441 0 l0 334 q0 80 -49 122 q-49 42 -148 42 q-59 1 -100 -15 q-42 -16 -74 -58 l49 -45 q21 30 49 43 q29 13 75 13 q67 0 97 -27 q30 -27 29 -81 l0 -47 l-148 0 q-83 -1 -126 -39 q-44 -38 -44 -103 q0 -30 10 -56 q9 -26 27 -44 q23 -24 56 -34 q33 -11 83 -11 q48 0 81 12 q32 11 61 41 l0 -47 l72 0 ZM369 174 q0 -61 -25 -85 q-23 -22 -51 -28 q-27 -6 -59 -5 q-58 0 -86 21 q-27 20 -27 63 q0 43 27 65 q28 22 83 22 l138 0 l0 -53 Z" /><glyph glyph-name="" unicode="b" d="M481 246 q1 59 -11 115 q-12 55 -49 94 q-20 20 -51 31 q-31 12 -69 12 q-40 1 -75 -12 q-34 -14 -64 -51 l0 277 l-72 0 l0 -712 l72 0 l0 59 q30 -38 64 -52 q35 -14 75 -13 q38 0 69 12 q31 11 51 31 q37 39 49 94 q12 56 11 115 l0 0 ZM409 246 q2 -75 -21 -130 q-24 -55 -102 -58 q-78 3 -102 58 q-24 55 -22 130 q-2 75 22 130 q24 55 102 58 q78 -3 102 -58 q23 -55 21 -130 l0 0 Z" /><glyph glyph-name="" unicode="c" d="M443 67 l-49 47 q-27 -30 -53 -43 q-26 -13 -60 -13 q-36 0 -65 14 q-29 14 -49 42 q-17 23 -25 55 q-7 31 -7 77 q0 46 7 77 q8 32 25 55 q20 28 49 42 q29 14 65 14 q34 0 60 -12 q26 -13 53 -43 l49 46 q-37 41 -75 57 q-37 17 -87 16 q-95 0 -155 -63 q-61 -63 -63 -189 q2 -126 63 -189 q60 -63 155 -63 q50 -1 87 16 q38 16 75 57 l0 0 Z" /><glyph glyph-name="" unicode="d" d="M455 0 l0 712 l-72 0 l0 -277 q-30 37 -64 51 q-35 13 -75 12 q-38 0 -69 -12 q-31 -11 -51 -31 q-37 -39 -49 -94 q-12 -56 -11 -115 q-1 -59 11 -115 q12 -55 49 -94 q20 -20 51 -31 q31 -12 69 -12 q40 -1 75 13 q35 14 65 52 l0 -59 l71 0 ZM383 246 q2 -75 -21 -130 q-24 -55 -102 -58 q-78 3 -102 58 q-24 55 -22 130 q-2 75 22 130 q24 55 102 58 q78 -3 102 -58 q23 -55 21 -130 l0 0 Z" /><glyph glyph-name="" unicode="e" d="M467 227 l0 33 q-1 111 -53 174 q-53 63 -149 64 q-95 -1 -148 -66 q-53 -66 -54 -186 q1 -130 59 -191 q57 -62 156 -61 q62 0 103 19 q41 19 77 57 l-49 43 q-28 -29 -58 -43 q-29 -13 -71 -13 q-71 1 -108 45 q-37 44 -37 125 l332 0 ZM395 281 l-260 0 q1 29 4 46 q3 17 11 36 q15 34 45 54 q30 20 70 20 q40 0 70 -20 q30 -20 45 -54 q8 -19 11 -36 q3 -17 4 -46 l0 0 Z" /><glyph glyph-name="" unicode="f" d="M283 434 l0 55 l-105 0 l0 91 q0 34 16 53 q16 19 50 19 l39 0 l0 62 l-52 0 q-63 -1 -94 -39 q-31 -37 -31 -93 l0 -93 l-63 0 l0 -55 l63 0 l0 -434 l72 0 l0 434 l105 0 Z" /><glyph glyph-name="" unicode="g" d="M453 -15 l0 507 l-71 0 l0 -58 q-30 38 -64 52 q-34 13 -74 12 q-38 0 -69 -12 q-31 -11 -51 -31 q-36 -37 -48 -91 q-13 -53 -12 -114 q-1 -61 12 -114 q12 -54 48 -91 q20 -20 51 -32 q30 -12 68 -12 q40 -1 74 13 q34 14 64 51 l0 -77 q0 -65 -32 -107 q-32 -42 -103 -44 q-41 0 -67 13 q-25 12 -51 36 l-47 -46 q38 -35 75 -51 q38 -15 92 -15 q97 2 151 60 q53 58 54 151 l0 0 ZM381 250 q2 -72 -21 -126 q-23 -55 -101 -58 q-78 3 -102 58 q-23 54 -21 126 q-2 72 21 127 q24 54 102 57 q78 -3 101 -57 q23 -55 21 -127 l0 0 Z" /><glyph glyph-name="" unicode="h" d="M477 0 l0 316 q-1 84 -47 133 q-46 48 -130 49 q-41 0 -76 -15 q-35 -14 -62 -45 l0 274 l-72 0 l0 -712 l72 0 l0 304 q1 64 34 97 q33 33 89 33 q56 0 88 -33 q31 -32 32 -97 l0 -304 l72 0 Z" /><glyph glyph-name="" unicode="i" d="M176 677 q-1 21 -15 35 q-14 13 -35 14 q-21 -1 -35 -14 q-13 -14 -14 -35 q1 -21 14 -35 q14 -13 35 -14 q21 1 35 14 q14 14 15 35 l0 0 ZM162 0 l0 492 l-72 0 l0 -492 l72 0 Z" /><glyph glyph-name="" unicode="j" d="M176 677 q-1 21 -15 35 q-14 13 -35 14 q-21 -1 -35 -14 q-13 -14 -14 -35 q1 -21 14 -35 q14 -13 35 -14 q21 1 35 14 q14 14 15 35 l0 0 ZM162 -89 l0 581 l-72 0 l0 -578 q1 -36 -14 -54 q-15 -18 -52 -18 l-39 0 l0 -63 l52 0 q64 1 95 38 q30 37 30 94 l0 0 Z" /><glyph glyph-name="" unicode="k" d="M503 0 l-196 304 l167 188 l-90 0 l-222 -256 l0 476 l-72 0 l0 -712 l72 0 l0 142 l96 110 l156 -252 l89 0 Z" /><glyph glyph-name="" unicode="l" d="M265 0 l0 62 l-39 0 q-37 0 -52 18 q-15 18 -14 54 l0 578 l-72 0 l0 -581 q0 -57 30 -94 q31 -36 95 -37 l52 0 Z" /><glyph glyph-name="" unicode="m" d="M794 0 l0 315 q0 86 -53 137 q-23 22 -55 34 q-32 12 -72 12 q-52 0 -93 -21 q-40 -20 -69 -61 q-23 41 -61 61 q-39 21 -90 21 q-41 0 -77 -15 q-35 -15 -62 -45 l0 54 l-72 0 l0 -492 l72 0 l0 303 q1 65 34 98 q33 33 89 33 q56 0 88 -33 q32 -33 33 -98 l0 -303 l72 0 l0 311 q1 59 35 91 q33 32 88 32 q56 0 88 -33 q32 -33 33 -98 l0 -303 l72 0 Z" /><glyph glyph-name="" unicode="n" d="M477 0 l0 315 q0 43 -12 77 q-13 34 -39 60 q-23 23 -54 34 q-32 12 -72 12 q-41 0 -76 -15 q-36 -15 -62 -45 l0 54 l-72 0 l0 -492 l72 0 l0 303 q1 65 33 98 q33 33 89 33 q56 0 88 -33 q32 -33 33 -98 l0 -303 l72 0 Z" /><glyph glyph-name="" unicode="o" d="M466 246 q1 57 -11 107 q-12 50 -49 89 q-25 26 -61 41 q-35 15 -80 15 q-45 0 -80 -15 q-35 -15 -61 -41 q-37 -39 -49 -89 q-12 -50 -11 -107 q-1 -57 11 -107 q12 -50 49 -89 q26 -26 61 -41 q35 -15 80 -15 q45 0 80 15 q36 15 61 41 q37 39 49 89 q12 50 11 107 l0 0 ZM394 246 q1 -42 -6 -83 q-7 -41 -33 -69 q-17 -17 -40 -27 q-24 -9 -50 -9 q-26 0 -49 9 q-23 10 -40 27 q-26 28 -33 69 q-8 41 -7 83 q-1 42 7 83 q7 41 33 69 q17 17 40 27 q23 9 49 9 q26 0 50 -9 q23 -10 40 -27 q26 -28 33 -69 q7 -41 6 -83 l0 0 Z" /><glyph glyph-name="" unicode="p" d="M481 246 q1 59 -11 115 q-12 55 -49 94 q-20 20 -51 31 q-31 12 -69 12 q-40 1 -75 -12 q-34 -14 -64 -52 l0 58 l-72 0 l0 -712 l72 0 l0 278 q30 -37 64 -51 q35 -14 75 -13 q38 0 69 12 q31 11 51 31 q37 39 49 94 q12 56 11 115 l0 0 ZM409 246 q2 -75 -21 -130 q-24 -55 -102 -58 q-78 3 -102 58 q-24 55 -22 130 q-2 75 22 130 q24 55 102 58 q78 -3 102 -58 q23 -55 21 -130 l0 0 Z" /><glyph glyph-name="" unicode="q" d="M455 -220 l0 712 l-71 0 l0 -58 q-30 38 -65 52 q-35 13 -75 12 q-38 0 -69 -12 q-31 -11 -51 -31 q-37 -39 -49 -94 q-12 -56 -11 -115 q-1 -59 11 -115 q12 -55 49 -94 q20 -20 51 -31 q31 -12 69 -12 q40 -1 75 13 q34 14 64 51 l0 -278 l72 0 ZM383 246 q2 -75 -21 -130 q-24 -55 -102 -58 q-78 3 -102 58 q-24 55 -22 130 q-2 75 22 130 q24 55 102 58 q78 -3 102 -58 q23 -55 21 -130 l0 0 Z" /><glyph glyph-name="" unicode="r" d="M418 452 q-26 26 -54 36 q-29 10 -64 10 q-43 0 -80 -18 q-37 -17 -58 -48 l0 60 l-72 0 l0 -492 l72 0 l0 302 q1 57 32 94 q31 37 86 38 q28 0 47 -8 q19 -8 38 -28 l53 54 Z" /><glyph glyph-name="" unicode="s" d="M445 144 q-1 68 -40 98 q-39 30 -105 35 l-79 7 q-46 4 -66 22 q-20 18 -20 50 q0 38 28 59 q28 22 82 22 q38 0 72 -9 q33 -10 59 -30 l47 47 q-33 27 -79 40 q-45 13 -98 13 q-80 -1 -130 -38 q-50 -38 -51 -106 q0 -61 38 -93 q37 -33 109 -39 l81 -7 q43 -4 62 -22 q20 -18 20 -50 q-1 -43 -35 -65 q-35 -22 -96 -22 q-46 0 -85 13 q-39 14 -68 44 l-48 -48 q40 -39 90 -55 q50 -16 112 -16 q91 0 145 39 q54 39 55 111 l0 0 Z" /><glyph glyph-name="" unicode="t" d="M279 0 l0 62 l-38 0 q-34 0 -51 19 q-16 19 -16 53 l0 300 l105 0 l0 55 l-105 0 l0 154 l-72 0 l0 -154 l-62 0 l0 -55 l62 0 l0 -302 q0 -56 32 -93 q31 -38 94 -39 l51 0 Z" /><glyph glyph-name="" unicode="u" d="M472 0 l0 492 l-72 0 l0 -303 q-1 -65 -34 -98 q-33 -33 -89 -33 q-56 0 -88 33 q-31 33 -32 98 l0 303 l-72 0 l0 -314 q0 -43 12 -78 q12 -34 38 -60 q23 -23 55 -34 q32 -12 72 -12 q42 0 77 16 q36 15 62 45 l0 -55 l71 0 Z" /><glyph glyph-name="" unicode="v" d="M436 492 l-78 0 l-135 -395 l-134 395 l-78 0 l180 -492 l64 0 l181 492 Z" /><glyph glyph-name="" unicode="w" d="M713 492 l-78 0 l-112 -395 l-130 395 l-62 0 l-129 -395 l-113 395 l-78 0 l156 -492 l67 0 l128 382 l129 -382 l67 0 l155 492 Z" /><glyph glyph-name="" unicode="x" d="M445 0 l-167 251 l160 241 l-87 0 l-111 -182 l-113 182 l-87 0 l160 -241 l-167 -251 l87 0 l120 191 l118 -191 l87 0 Z" /><glyph glyph-name="" unicode="y" d="M436 492 l-78 0 l-134 -395 l-135 395 l-78 0 l177 -482 l-35 -96 q-11 -33 -28 -47 q-17 -14 -53 -14 l-22 0 l0 -64 l31 0 q27 0 51 8 q25 7 45 26 q10 10 19 24 q9 14 16 34 l224 611 Z" /><glyph glyph-name="" unicode="z" d="M407 0 l0 64 l-275 0 l275 367 l0 61 l-342 0 l0 -64 l259 0 l-274 -366 l0 -62 l357 0 Z" /><glyph glyph-name="" unicode="{" d="M305 -74 l0 64 l-23 0 q-26 0 -39 3 q-13 3 -20 10 q-8 8 -11 23 q-3 15 -3 42 l0 188 q0 42 -17 65 q-17 22 -46 35 q29 13 46 35 q17 23 17 65 l0 188 q0 27 3 42 q3 15 11 23 q7 7 20 10 q13 3 39 3 l23 0 l0 64 l-37 0 q-37 0 -61 -7 q-25 -7 -40 -23 q-16 -16 -23 -38 q-7 -23 -7 -61 l0 -191 q0 -42 -18 -60 q-8 -8 -19 -13 q-12 -5 -26 -5 l-26 0 l0 -64 l26 0 q14 0 26 -5 q11 -5 19 -13 q18 -18 18 -60 l0 -191 q0 -38 7 -61 q7 -22 23 -38 q15 -16 40 -23 q24 -7 61 -7 l37 0 Z" /><glyph glyph-name="" unicode="|" d="M199 -74 l0 860 l-72 0 l0 -860 l72 0 Z" /><glyph glyph-name="" unicode="}" d="M305 324 l0 64 l-25 0 q-14 0 -26 5 q-11 5 -19 13 q-18 18 -18 60 l0 191 q0 38 -7 61 q-7 22 -23 38 q-15 16 -40 23 q-24 7 -61 7 l-38 0 l0 -64 l24 0 q26 0 38 -3 q13 -3 20 -10 q8 -8 12 -23 q3 -15 3 -42 l0 -188 q0 -42 17 -65 q17 -22 46 -35 q-29 -13 -46 -35 q-17 -23 -17 -65 l0 -188 q0 -27 -3 -42 q-4 -15 -12 -23 q-7 -7 -20 -10 q-12 -3 -38 -3 l-24 0 l0 -64 l38 0 q37 0 61 7 q25 7 40 23 q16 16 23 38 q7 23 7 61 l0 191 q0 42 18 60 q8 8 19 13 q12 5 26 5 l25 0 Z" /><glyph glyph-name="" unicode="~" d="M490 278 l-45 45 q-28 -28 -46 -37 q-18 -9 -38 -8 q-20 0 -39 7 q-18 7 -39 17 q-28 13 -54 22 q-25 9 -51 9 q-32 1 -60 -13 q-28 -14 -69 -55 l44 -45 q28 28 46 37 q18 9 38 8 q20 0 39 -7 q18 -7 39 -17 q28 -13 54 -22 q26 -9 52 -9 q32 -1 60 13 q28 14 69 55 l0 0 Z" /><glyph glyph-name="" unicode="¡" d="M199 445 q0 22 -14 36 q-14 14 -36 14 q-21 0 -35 -14 q-14 -14 -15 -36 q1 -21 15 -35 q14 -14 35 -15 q22 1 36 15 q14 14 14 35 l0 0 ZM191 -220 l-13 512 l-58 0 l-13 -512 l84 0 Z" /><glyph glyph-name="" unicode="¢" d="M448 189 l-49 46 q-24 -27 -47 -40 q-24 -13 -53 -15 l0 372 q29 -2 53 -15 q23 -13 47 -40 l49 46 q-34 37 -68 54 q-34 17 -77 20 l0 95 l-59 0 l0 -97 q-83 -13 -132 -76 q-48 -64 -49 -173 q1 -109 49 -172 q49 -64 132 -77 l0 -117 l59 0 l0 115 q43 3 77 20 q34 17 68 54 l0 0 ZM248 182 q-25 5 -45 18 q-20 13 -35 34 q-17 23 -25 55 q-8 31 -8 77 q0 46 8 77 q8 32 25 55 q15 21 35 34 q20 13 45 18 l0 -368 Z" /><glyph glyph-name="" unicode="£" d="M496 0 l0 68 l-309 0 l0 262 l146 0 l0 54 l-146 0 l0 102 q0 79 38 121 q38 43 108 43 q43 0 68 -14 q25 -13 43 -33 l52 51 q-33 33 -72 49 q-40 15 -91 15 q-99 -1 -160 -60 q-61 -58 -63 -162 l0 -112 l-63 0 l0 -54 l63 0 l0 -330 l386 0 Z" /><glyph glyph-name="" unicode="&#x2044;" d="M289 712 l-60 0 l-333 -712 l60 0 l333 712 Z" /><glyph glyph-name="" unicode="¥" d="M506 712 l-81 0 l-167 -341 l-168 341 l-82 0 l157 -311 l-100 0 l0 -54 l128 0 l26 -53 l0 -52 l-154 0 l0 -55 l154 0 l0 -187 l77 0 l0 187 l153 0 l0 55 l-153 0 l0 52 l26 53 l127 0 l0 54 l-100 0 l157 311 Z" /><glyph glyph-name="" unicode="&#x192;" d="M373 652 l0 62 l-52 0 q-63 -1 -101 -39 q-38 -37 -48 -93 l-34 -198 l-108 0 l0 -54 l98 0 l-97 -550 l72 0 l97 550 l115 0 l0 54 l-105 0 l34 196 q6 34 25 53 q20 19 54 19 l50 0 Z" /><glyph glyph-name="" unicode="§" d="M470 254 q0 68 -36 116 q-35 48 -101 67 l-78 22 q-38 10 -61 33 q-22 24 -23 63 q0 49 29 74 q28 25 79 25 q48 0 77 -22 q29 -22 33 -71 l72 0 q-4 73 -53 115 q-50 41 -129 42 q-80 -1 -129 -46 q-50 -44 -51 -118 q0 -54 25 -87 q25 -32 68 -51 q-42 -20 -73 -61 q-30 -41 -32 -103 q0 -69 36 -116 q35 -48 101 -67 l78 -22 q42 -13 65 -40 q23 -27 23 -62 q-1 -51 -30 -78 q-29 -27 -81 -27 q-51 0 -81 24 q-30 24 -35 71 l-73 0 q6 -80 60 -121 q53 -40 129 -40 q79 1 131 47 q51 46 53 125 q-1 55 -27 92 q-27 36 -70 52 q41 20 72 61 q30 41 32 103 l0 0 ZM397 253 q0 -32 -8 -54 q-9 -22 -24 -38 q-16 -17 -38 -27 q-22 -9 -48 -9 q-26 0 -48 9 q-22 10 -38 27 q-15 16 -24 38 q-9 22 -9 54 q0 30 8 52 q8 22 25 40 q16 17 38 27 q22 9 48 9 q26 0 48 -9 q21 -10 38 -27 q18 -19 25 -41 q7 -23 7 -51 l0 0 Z" /><glyph glyph-name="" unicode="¤" d="M582 65 l-74 74 q20 27 32 61 q12 33 12 71 q0 38 -12 71 q-12 34 -32 61 l74 73 l-46 46 l-75 -73 q-27 20 -60 32 q-33 11 -71 11 q-38 0 -71 -11 q-34 -12 -61 -32 l-74 73 l-46 -46 l74 -73 q-20 -27 -32 -61 q-12 -33 -12 -71 q0 -38 12 -71 q12 -34 32 -61 l-74 -74 l46 -46 l74 74 q27 -20 61 -32 q33 -12 71 -12 q38 0 71 12 q33 12 60 32 l75 -74 l46 46 ZM485 271 q-2 -66 -45 -110 q-44 -44 -110 -46 q-66 2 -110 46 q-44 44 -46 110 q2 66 46 110 q44 43 110 45 q66 -2 110 -45 q43 -44 45 -110 l0 0 Z" /><glyph glyph-name="" unicode="&#39;" d="M167 542 l0 170 l-79 0 l0 -170 l79 0 Z" /><glyph glyph-name="" unicode="&#x201c;" d="M346 628 l0 163 l-88 -79 l0 -84 l88 0 ZM175 628 l0 163 l-87 -79 l0 -84 l87 0 Z" /><glyph glyph-name="" unicode="«" d="M476 58 l0 89 l-121 121 l121 120 l0 90 l-210 -210 l210 -210 ZM250 58 l0 89 l-120 121 l120 120 l0 90 l-210 -210 l210 -210 Z" /><glyph glyph-name="" unicode="&#x2039;" d="M250 58 l0 89 l-120 121 l120 120 l0 90 l-210 -210 l210 -210 Z" /><glyph glyph-name="" unicode="­&#x203a;" d="M288 268 l-210 210 l0 -90 l121 -120 l-121 -121 l0 -89 l210 210 Z" /><glyph glyph-name="" unicode="&#xfb01;" d="M483 677 q-1 21 -14 35 q-14 13 -35 14 q-21 -1 -35 -14 q-14 -14 -15 -35 q1 -21 15 -35 q14 -13 35 -14 q21 1 35 14 q13 14 14 35 l0 0 ZM470 0 l0 489 l-72 0 l0 -489 l72 0 ZM281 434 l0 55 l-106 0 l0 91 q0 34 16 53 q17 19 51 19 l39 0 l0 62 l-52 0 q-63 -1 -94 -39 q-32 -37 -32 -93 l0 -93 l-63 0 l0 -55 l63 0 l0 -434 l72 0 l0 434 l106 0 Z" /><glyph glyph-name="" unicode="&#xfb02;" d="M573 0 l0 62 l-40 0 q-37 0 -52 18 q-15 18 -14 54 l0 578 l-72 0 l0 -581 q0 -57 31 -94 q31 -36 95 -37 l52 0 ZM282 434 l0 55 l-105 0 l0 91 q0 34 16 53 q16 19 50 19 l39 0 l0 62 l-52 0 q-63 -1 -94 -39 q-31 -37 -31 -93 l0 -93 l-63 0 l0 -55 l63 0 l0 -434 l72 0 l0 434 l105 0 Z" /><glyph glyph-name="" unicode="&#x2013;" d="M470 236 l0 67 l-418 0 l0 -67 l418 0 Z" /><glyph glyph-name="" unicode="&#x2020;" d="M531 445 l0 64 l-194 0 l0 203 l-72 0 l0 -203 l-191 0 l0 -64 l191 0 l0 -445 l72 0 l0 445 l194 0 Z" /><glyph glyph-name="" unicode="&#x2021;" d="M531 -16 l0 64 l-194 0 l0 397 l194 0 l0 64 l-194 0 l0 203 l-72 0 l0 -203 l-191 0 l0 -64 l191 0 l0 -397 l-191 0 l0 -64 l191 0 l0 -204 l72 0 l0 204 l194 0 Z" /><glyph glyph-name="" unicode="·" d="M193 267 q-1 24 -17 40 q-16 15 -40 16 q-24 -1 -40 -16 q-16 -16 -17 -40 q1 -24 17 -40 q16 -16 40 -17 q24 1 40 17 q16 16 17 40 l0 0 Z" /><glyph glyph-name="" unicode="¶" d="M500 -220 l0 932 l-241 0 q-103 -2 -160 -57 q-56 -55 -57 -137 q1 -76 54 -133 q52 -56 143 -59 l0 -546 l72 0 l0 864 l117 0 l0 -864 l72 0 Z" /><glyph glyph-name="" unicode="&#x2022;" d="M429 334 q-2 69 -48 115 q-46 46 -115 48 q-69 -2 -115 -48 q-46 -46 -48 -115 q2 -69 48 -115 q46 -46 115 -48 q69 2 115 48 q46 46 48 115 l0 0 Z" /><glyph glyph-name="" unicode="&#x201a;" d="M175 0 l0 84 l-87 0 l0 -163 l87 79 Z" /><glyph glyph-name="" unicode="&#x201e;" d="M346 0 l0 84 l-88 0 l0 -163 l88 79 ZM175 0 l0 84 l-87 0 l0 -163 l87 79 Z" /><glyph glyph-name="" unicode="&#x201d;" d="M346 628 l0 84 l-88 0 l0 -163 l88 79 ZM175 628 l0 84 l-87 0 l0 -163 l87 79 Z" /><glyph glyph-name="" unicode="»" d="M514 268 l-210 210 l0 -90 l120 -120 l-120 -121 l0 -89 l210 210 ZM288 268 l-210 210 l0 -90 l121 -120 l-121 -121 l0 -89 l210 210 Z" /><glyph glyph-name="" unicode="&#x2026;" d="M677 54 q-1 24 -17 40 q-16 16 -40 17 q-24 -1 -40 -17 q-16 -16 -17 -40 q1 -24 17 -40 q16 -16 40 -17 q24 1 40 17 q16 16 17 40 l0 0 ZM435 54 q-1 24 -17 40 q-16 16 -40 17 q-24 -1 -40 -17 q-16 -16 -17 -40 q1 -24 17 -40 q16 -16 40 -17 q24 1 40 17 q16 16 17 40 l0 0 ZM193 54 q-1 24 -17 40 q-16 16 -40 17 q-24 -1 -40 -17 q-16 -16 -17 -40 q1 -24 17 -40 q16 -16 40 -17 q24 1 40 17 q16 16 17 40 l0 0 Z" /><glyph glyph-name="" unicode="&#x2030;" d="M1115 128 l0 105 q-1 62 -39 98 q-37 36 -96 37 q-60 -1 -97 -37 q-37 -36 -38 -98 l0 -105 q1 -62 38 -98 q37 -36 97 -37 q59 1 96 37 q38 36 39 98 l0 0 ZM769 128 l0 105 q-1 62 -39 98 q-37 36 -96 37 q-60 -1 -97 -37 q-37 -36 -38 -98 l0 -105 q1 -62 38 -98 q37 -36 97 -37 q59 1 96 37 q38 36 39 98 l0 0 ZM614 712 l-60 0 l-334 -712 l60 0 l334 712 ZM335 479 l0 105 q-1 62 -39 98 q-37 36 -96 37 q-60 -1 -97 -37 q-37 -36 -38 -98 l0 -105 q1 -62 38 -97 q37 -36 97 -37 q59 1 96 37 q38 35 39 97 l0 0 ZM1058 130 q0 -40 -19 -63 q-19 -24 -59 -24 q-41 0 -60 23 q-18 23 -18 64 l0 101 q0 41 18 64 q19 23 60 23 q40 0 59 -24 q19 -23 19 -63 l0 -101 ZM712 130 q0 -40 -19 -63 q-19 -24 -59 -24 q-41 0 -60 23 q-18 23 -18 64 l0 101 q0 41 18 64 q19 23 60 23 q40 0 59 -24 q19 -23 19 -63 l0 -101 ZM278 481 q0 -40 -19 -63 q-19 -23 -59 -23 q-40 0 -59 23 q-19 22 -19 63 l0 101 q0 41 18 64 q19 23 60 23 q40 0 59 -24 q19 -23 19 -63 l0 -101 Z" /><glyph glyph-name="" unicode="¿" d="M284 445 q0 22 -14 36 q-14 14 -36 14 q-22 0 -36 -14 q-14 -14 -15 -36 q1 -21 15 -35 q14 -14 36 -15 q22 1 36 15 q14 14 14 35 l0 0 ZM427 -43 l-72 0 q-1 -49 -31 -83 q-31 -34 -85 -35 q-51 1 -83 34 q-31 33 -32 84 q0 25 9 45 q9 20 24 40 l81 116 q16 22 23 44 q8 21 8 50 l0 41 l-72 0 l0 -40 q0 -12 -4 -28 q-5 -16 -14 -30 l-82 -118 q-20 -28 -32 -57 q-13 -28 -13 -63 q2 -82 54 -132 q52 -50 133 -51 q83 2 135 53 q51 52 53 130 l0 0 Z" /><glyph glyph-name="" unicode="`" d="M299 594 l-88 153 l-86 0 l108 -153 l66 0 Z" /><glyph glyph-name="" unicode="´" d="M375 747 l-86 0 l-88 -153 l66 0 l108 153 Z" /><glyph glyph-name="" unicode="&#x2c6;" d="M409 594 l-125 153 l-68 0 l-125 -153 l69 0 l90 104 l90 -104 l69 0 Z" /><glyph glyph-name="" unicode="&#x2dc;" d="M407 659 l-37 36 q-21 -21 -35 -27 q-13 -6 -24 -5 q-15 0 -28 5 q-13 5 -28 15 q-18 11 -34 18 q-16 6 -37 6 q-18 1 -40 -9 q-22 -9 -55 -42 l37 -36 q22 22 35 27 q13 6 24 5 q15 0 28 -6 q14 -6 28 -15 q18 -11 34 -17 q16 -6 37 -6 q17 -1 39 9 q23 9 56 42 l0 0 Z" /><glyph glyph-name="" unicode="¯" d="M401 614 l0 57 l-302 0 l0 -57 l302 0 Z" /><glyph glyph-name="" unicode="&#x2d8;" d="M415 727 l-55 0 q-6 -39 -34 -60 q-28 -22 -74 -22 q-46 0 -75 22 q-28 21 -34 60 l-58 0 q6 -68 48 -104 q42 -35 119 -35 q76 0 117 35 q40 36 46 104 l0 0 Z" /><glyph glyph-name="" unicode="&#x2d9;" d="M290 634 l0 74 l-80 0 l0 -74 l80 0 Z" /><glyph glyph-name="" unicode="¨" d="M401 645 q0 19 -13 32 q-13 13 -32 14 q-19 -1 -32 -14 q-13 -13 -13 -32 q0 -19 13 -32 q13 -13 32 -13 q19 0 32 13 q13 13 13 32 l0 0 ZM189 645 q0 19 -13 32 q-13 13 -32 14 q-19 -1 -32 -14 q-13 -13 -13 -32 q0 -19 13 -32 q13 -13 32 -13 q19 0 32 13 q13 13 13 32 l0 0 Z" /><glyph glyph-name="" unicode="&#x2da;" d="M368 687 q-1 51 -35 84 q-33 33 -83 34 q-50 -1 -83 -35 q-34 -33 -35 -83 q1 -50 35 -84 q33 -34 83 -35 q50 1 83 35 q34 34 35 84 l0 0 ZM319 687 q-1 -29 -20 -49 q-20 -19 -49 -20 q-29 1 -49 20 q-19 20 -20 49 q1 29 20 48 q20 19 49 20 q29 -1 49 -20 q19 -19 20 -48 l0 0 Z" /><glyph glyph-name="" unicode="¸" d="M313 -67 l-67 0 l-71 -149 l79 0 l59 149 Z" /><glyph glyph-name="" unicode="&#x2dd;" d="M447 747 l-85 0 l-89 -153 l65 0 l109 153 ZM284 747 l-85 0 l-89 -153 l66 0 l108 153 Z" /><glyph glyph-name="" unicode="&#x2db;" d="M323 -216 l-71 149 l-66 0 l59 -149 l78 0 Z" /><glyph glyph-name="" unicode="&#x2c7;" d="M409 747 l-69 0 l-90 -105 l-90 105 l-69 0 l125 -153 l68 0 l125 153 Z" /><glyph glyph-name="" unicode="&#x2014;" d="M838 236 l0 68 l-762 0 l0 -68 l762 0 Z" /><glyph glyph-name="" unicode="Æ" d="M867 0 l0 68 l-366 0 l0 255 l312 0 l0 68 l-312 0 l0 253 l366 0 l0 68 l-483 0 l-376 -712 l83 0 l88 169 l247 0 l0 -169 l441 0 ZM426 235 l-214 0 l214 409 l0 -409 Z" /><glyph glyph-name="" unicode="ª" d="M365 319 l0 265 q0 64 -38 98 q-38 34 -117 34 q-47 1 -80 -13 q-34 -13 -60 -47 l41 -37 q17 24 40 34 q22 10 58 10 q53 0 75 -21 q23 -21 22 -63 l0 -36 l-115 0 q-66 -1 -100 -31 q-35 -31 -35 -83 q0 -23 8 -44 q8 -20 22 -35 q18 -19 44 -27 q26 -9 66 -9 q38 0 63 9 q26 10 48 32 l0 -36 l58 0 ZM306 458 q0 -49 -19 -67 q-18 -17 -40 -21 q-21 -5 -46 -4 q-45 0 -65 16 q-21 16 -21 49 q0 33 21 50 q20 17 63 17 l107 0 l0 -40 Z" /><glyph glyph-name="" unicode="&#x141;" d="M552 0 l0 68 l-363 0 l0 270 l154 98 l0 66 l-154 -98 l0 308 l-77 0 l0 -356 l-73 -46 l0 -67 l73 46 l0 -289 l440 0 Z" /><glyph glyph-name="" unicode="Ø" d="M574 356 q2 111 -8 176 q-11 64 -59 112 q-2 2 -4 4 q-2 2 -4 4 l50 104 l-65 0 l-34 -69 q-56 31 -125 31 q-53 0 -100 -19 q-46 -19 -82 -55 q-48 -48 -59 -112 q-10 -65 -8 -176 q-2 -111 8 -175 q11 -65 59 -113 q2 -2 4 -4 q2 -2 4 -4 l-50 -104 l65 0 l33 70 q28 -16 60 -24 q31 -8 66 -8 q53 0 100 19 q46 19 82 55 q48 48 59 113 q10 64 8 175 l0 0 ZM497 356 q1 -109 -8 -160 q-8 -52 -41 -83 q-24 -24 -55 -37 q-32 -14 -68 -14 q-26 0 -51 8 q-24 7 -45 21 l234 490 q22 -29 29 -79 q6 -51 5 -146 l0 0 ZM421 621 l-234 -490 q-23 29 -29 80 q-7 50 -6 145 q-1 109 8 160 q9 52 42 83 q24 24 56 38 q31 13 67 13 q26 0 51 -8 q24 -7 45 -21 l0 0 Z" /><glyph glyph-name="" unicode="&#x152;" d="M933 0 l0 67 l-360 0 q0 61 1 130 q0 69 0 130 l304 0 l0 64 l-304 0 q0 59 0 127 q-1 67 -1 127 l358 0 l0 67 l-434 0 l0 -74 q-33 40 -77 60 q-43 20 -96 20 q-53 0 -99 -19 q-46 -19 -82 -55 q-47 -47 -58 -112 q-11 -65 -9 -176 q-2 -111 9 -176 q11 -65 58 -112 q36 -36 82 -55 q46 -19 99 -19 q49 0 94 20 q45 20 79 60 l0 -74 l436 0 ZM497 356 q1 -109 -8 -160 q-8 -52 -41 -83 q-24 -24 -55 -37 q-32 -14 -68 -14 q-36 0 -67 14 q-32 13 -56 37 q-33 31 -42 83 q-9 51 -8 160 q-1 109 8 160 q9 52 42 83 q24 24 56 38 q31 13 67 13 q36 0 68 -13 q31 -14 55 -38 q33 -31 41 -83 q9 -51 8 -160 l0 0 Z" /><glyph glyph-name="" unicode="º" d="M387 515 q1 45 -9 85 q-10 40 -39 71 q-20 21 -48 33 q-28 12 -64 12 q-36 0 -64 -12 q-28 -12 -48 -33 q-29 -31 -39 -71 q-10 -40 -9 -85 q-1 -46 9 -85 q10 -40 39 -71 q20 -20 48 -32 q28 -12 64 -12 q36 0 64 12 q28 12 48 32 q29 31 39 71 q10 39 9 85 l0 0 ZM328 515 q1 -33 -5 -65 q-6 -31 -26 -53 q-14 -14 -32 -21 q-18 -8 -38 -8 q-20 0 -38 8 q-18 7 -32 21 q-20 22 -25 53 q-6 32 -5 65 q-1 33 5 65 q5 32 25 54 q14 14 32 21 q18 7 38 7 q20 0 38 -7 q18 -7 32 -21 q20 -22 26 -54 q6 -32 5 -65 l0 0 Z" /><glyph glyph-name="" unicode="æ" d="M773 227 l0 33 q-1 111 -53 174 q-53 63 -149 64 q-50 0 -89 -20 q-39 -19 -65 -57 q-20 38 -63 58 q-43 19 -110 19 q-59 1 -100 -15 q-42 -16 -74 -58 l49 -45 q21 30 49 43 q29 13 75 13 q67 0 97 -27 q30 -27 29 -81 l0 -47 l-148 0 q-83 -1 -126 -39 q-44 -38 -44 -103 q0 -30 10 -56 q9 -26 27 -44 q23 -24 56 -34 q33 -11 83 -11 q63 -1 105 19 q42 19 75 66 q27 -43 72 -64 q45 -21 103 -21 q62 0 104 19 q42 19 78 57 l-50 43 q-28 -29 -57 -43 q-29 -13 -71 -13 q-71 1 -108 45 q-38 44 -38 125 l333 0 ZM701 281 l-261 0 q1 29 5 46 q3 17 11 36 q15 34 45 54 q30 20 70 20 q40 0 70 -20 q30 -20 45 -54 q8 -19 11 -36 q3 -17 4 -46 l0 0 ZM369 174 q0 -61 -25 -85 q-23 -22 -51 -28 q-27 -6 -59 -5 q-58 0 -86 21 q-27 20 -27 63 q0 43 27 65 q28 22 83 22 l138 0 l0 -53 Z" /><glyph glyph-name="" unicode="&#x131;" d="M162 0 l0 492 l-72 0 l0 -492 l72 0 Z" /><glyph glyph-name="" unicode="&#x142;" d="M278 0 l0 62 l-40 0 q-37 0 -52 18 q-15 18 -14 54 l0 252 l81 50 l0 62 l-81 -50 l0 264 l-72 0 l0 -308 l-63 -39 l0 -62 l63 39 l0 -211 q0 -57 31 -94 q31 -36 95 -37 l52 0 Z" /><glyph glyph-name="" unicode="ø" d="M466 246 q1 57 -11 106 q-12 50 -47 88 l57 96 l-56 0 l-39 -65 q-22 13 -48 20 q-26 7 -57 7 q-45 0 -80 -15 q-35 -15 -61 -41 q-37 -39 -49 -89 q-12 -50 -11 -107 q-1 -57 11 -106 q12 -50 47 -88 l-57 -96 l57 0 l38 65 q22 -13 48 -20 q26 -7 57 -7 q45 0 80 15 q36 15 61 41 q37 39 49 89 q12 50 11 107 l0 0 ZM394 246 q1 -42 -6 -83 q-7 -41 -33 -69 q-17 -17 -40 -27 q-24 -9 -50 -9 q-20 0 -39 6 q-18 5 -33 16 l177 299 q16 -28 20 -62 q5 -35 4 -71 l0 0 ZM337 413 l-176 -300 q-16 28 -21 62 q-4 35 -4 71 q-1 42 7 83 q7 41 33 69 q17 17 40 27 q23 9 49 9 q20 0 39 -5 q18 -5 33 -16 l0 0 Z" /><glyph glyph-name="" unicode="&#x153;" d="M798 227 l0 33 q-1 111 -53 174 q-53 63 -149 64 q-56 0 -97 -24 q-41 -24 -66 -71 q-24 45 -68 70 q-44 25 -100 25 q-45 0 -80 -15 q-35 -15 -61 -41 q-37 -39 -49 -89 q-12 -50 -11 -107 q-1 -57 11 -107 q12 -50 49 -89 q26 -26 61 -41 q35 -15 80 -15 q56 0 100 25 q43 25 67 70 q26 -47 71 -71 q45 -24 106 -24 q62 0 103 19 q41 19 77 57 l-49 43 q-28 -29 -58 -43 q-29 -13 -71 -13 q-71 1 -108 45 q-37 44 -37 125 l332 0 ZM727 281 l-261 0 q1 29 4 46 q3 17 11 36 q15 34 45 54 q30 20 70 20 q40 0 70 -20 q30 -20 45 -54 q8 -19 11 -36 q4 -17 5 -46 l0 0 ZM394 246 q1 -42 -6 -83 q-7 -41 -33 -69 q-17 -17 -40 -27 q-24 -9 -50 -9 q-26 0 -49 9 q-23 10 -40 27 q-26 28 -33 69 q-8 41 -7 83 q-1 42 7 83 q7 41 33 69 q17 17 40 27 q23 9 49 9 q26 0 50 -9 q23 -10 40 -27 q26 -28 33 -69 q7 -41 6 -83 l0 0 Z" /><glyph glyph-name="" unicode="ß" d="M484 141 l0 173 q1 47 -13 74 q-15 27 -50 46 q30 19 47 49 q16 29 16 70 q-2 86 -57 126 q-54 40 -136 40 q-93 0 -147 -51 q-53 -50 -54 -144 l0 -524 l73 0 l0 521 q-1 61 29 98 q29 36 95 37 q32 0 55 -7 q23 -7 39 -22 q14 -14 23 -33 q8 -20 8 -42 q-1 -42 -24 -66 q-24 -25 -64 -25 l-36 0 l0 -60 l44 0 q38 0 59 -21 q11 -11 16 -26 q5 -14 5 -36 l0 -169 q0 -23 -6 -40 q-7 -17 -19 -27 q-12 -10 -25 -15 q-13 -5 -34 -5 l-40 0 l0 -62 l54 0 q34 0 59 9 q24 8 44 27 q19 17 29 44 q10 27 10 61 l0 0 Z" /><glyph glyph-name="" unicode="Ð" d="M611 356 q1 111 -7 159 q-7 48 -37 90 q-35 53 -86 80 q-52 27 -119 27 l-245 0 l0 -323 l-78 0 l0 -59 l78 0 l0 -330 l239 0 q73 1 126 30 q53 29 85 75 q28 36 36 85 q9 49 8 166 l0 0 ZM535 352 q1 -100 -5 -141 q-5 -41 -26 -70 q-25 -37 -64 -55 q-40 -19 -92 -19 l-154 0 l0 263 l161 0 l0 59 l-161 0 l0 256 l154 0 q50 0 86 -16 q37 -17 65 -56 q25 -32 31 -78 q6 -46 5 -143 l0 0 Z" /><glyph glyph-name="" unicode="ð" d="M465 244 q1 62 -12 110 q-12 48 -51 115 l-63 111 l54 0 l0 52 l-82 0 l-47 82 l-75 0 l47 -82 l-88 0 l0 -52 l116 0 l58 -99 q-17 7 -36 9 q-20 2 -39 1 q-38 -2 -68 -15 q-31 -14 -54 -37 q-36 -38 -48 -88 q-12 -50 -11 -107 q-1 -57 11 -107 q12 -50 48 -88 q25 -26 60 -40 q35 -15 80 -15 q45 0 80 15 q35 14 60 40 q37 38 49 88 q12 50 11 107 l0 0 ZM393 244 q1 -42 -6 -82 q-7 -40 -33 -68 q-17 -17 -40 -27 q-23 -9 -49 -9 q-26 0 -48 9 q-23 10 -40 27 q-26 28 -33 68 q-7 40 -6 82 q-1 42 6 83 q7 40 33 68 q17 17 40 27 q22 9 48 9 q26 0 49 -9 q23 -10 40 -27 q26 -28 33 -68 q7 -41 6 -83 l0 0 Z" /><glyph glyph-name="" unicode="&#x160;" d="M532 196 q0 44 -15 80 q-16 36 -45 61 q-22 19 -51 31 q-30 12 -79 19 l-78 12 q-28 5 -54 15 q-25 10 -42 24 q-16 14 -24 35 q-8 21 -8 47 q0 60 39 96 q39 35 111 36 q55 0 95 -15 q39 -16 71 -46 l49 49 q-45 41 -95 60 q-50 18 -117 18 q-107 -1 -167 -55 q-60 -54 -61 -146 q0 -85 54 -133 q23 -20 57 -34 q33 -13 74 -20 l83 -13 q38 -5 57 -12 q20 -7 36 -22 q17 -15 26 -38 q8 -23 8 -51 q-1 -63 -45 -97 q-44 -35 -123 -35 q-59 -1 -105 17 q-46 17 -89 61 l-52 -52 q49 -50 107 -72 q58 -22 137 -22 q113 1 179 54 q66 53 67 148 l0 0 ZM448 934 l-69 0 l-90 -105 l-90 105 l-69 0 l125 -153 l68 0 l125 153 Z" /><glyph glyph-name="" unicode="&#x161;" d="M445 144 q-1 68 -40 98 q-39 30 -105 35 l-79 7 q-46 4 -66 22 q-20 18 -20 50 q0 38 28 59 q28 22 82 22 q38 0 72 -9 q33 -10 59 -30 l47 47 q-33 27 -79 40 q-45 13 -98 13 q-80 -1 -130 -38 q-50 -38 -51 -106 q0 -61 38 -93 q37 -33 109 -39 l81 -7 q43 -4 62 -22 q20 -18 20 -50 q-1 -43 -35 -65 q-35 -22 -96 -22 q-46 0 -85 13 q-39 14 -68 44 l-48 -48 q40 -39 90 -55 q50 -16 112 -16 q91 0 145 39 q54 39 55 111 l0 0 ZM405 747 l-69 0 l-90 -105 l-90 105 l-69 0 l125 -153 l68 0 l125 153 Z" /><glyph glyph-name="" unicode="Ý" d="M506 712 l-82 0 l-166 -341 l-168 341 l-82 0 l212 -418 l0 -294 l76 0 l0 294 l210 418 ZM382 934 l-86 0 l-88 -153 l66 0 l108 153 Z" /><glyph glyph-name="" unicode="ý" d="M436 492 l-78 0 l-134 -395 l-135 395 l-78 0 l177 -482 l-35 -96 q-11 -33 -28 -47 q-17 -14 -53 -14 l-22 0 l0 -64 l31 0 q27 0 51 8 q25 7 45 26 q10 10 19 24 q9 14 16 34 l224 611 ZM348 747 l-86 0 l-88 -153 l66 0 l108 153 Z" /><glyph glyph-name="" unicode="Þ" d="M588 359 q-2 97 -61 153 q-60 56 -159 57 l-189 0 l0 143 l-76 0 l0 -712 l76 0 l0 150 l189 0 q99 1 159 57 q59 55 61 152 l0 0 ZM512 359 q-1 -70 -42 -106 q-41 -35 -109 -35 l-182 0 l0 282 l182 0 q68 0 109 -35 q41 -35 42 -106 l0 0 Z" /><glyph glyph-name="" unicode="þ" d="M481 246 q1 59 -11 115 q-12 55 -49 94 q-20 20 -51 31 q-31 12 -69 12 q-40 1 -75 -12 q-34 -14 -64 -51 l0 277 l-72 0 l0 -932 l72 0 l0 278 q30 -37 64 -51 q35 -14 75 -13 q38 0 69 12 q31 11 51 31 q37 39 49 94 q12 56 11 115 l0 0 ZM409 246 q2 -75 -21 -130 q-24 -55 -102 -58 q-78 3 -102 58 q-24 55 -22 130 q-2 75 22 130 q24 55 102 58 q78 -3 102 -58 q23 -55 21 -130 l0 0 Z" /><glyph glyph-name="" unicode="&#x17d;" d="M499 0 l0 68 l-359 0 l359 580 l0 64 l-428 0 l0 -68 l342 0 l-356 -572 l0 -72 l442 0 ZM443 934 l-69 0 l-90 -105 l-90 105 l-69 0 l125 -153 l68 0 l125 153 Z" /><glyph glyph-name="" unicode="&#x17e;" d="M407 0 l0 64 l-275 0 l275 367 l0 61 l-342 0 l0 -64 l259 0 l-274 -366 l0 -62 l357 0 ZM395 747 l-69 0 l-90 -105 l-90 105 l-69 0 l125 -153 l68 0 l125 153 Z" /><glyph glyph-name="" unicode="½" d="M742 0 l0 52 l-176 0 l137 168 q20 23 29 44 q10 21 10 48 q-1 55 -34 87 q-34 31 -89 32 q-55 -1 -88 -32 q-34 -32 -35 -87 l58 0 q1 36 20 52 q19 15 45 15 q31 0 48 -18 q17 -19 17 -49 q0 -16 -5 -30 q-6 -13 -18 -28 l-165 -202 l0 -52 l246 0 ZM554 712 l-60 0 l-333 -712 l60 0 l333 712 ZM183 285 l0 427 l-57 0 l-83 -71 l0 -66 l83 73 l0 -363 l57 0 Z" /><glyph glyph-name="" unicode="¼" d="M737 64 l0 53 l-47 0 l0 105 l-56 0 l0 -105 l-109 0 l150 310 l-62 0 l-151 -310 l0 -53 l172 0 l0 -64 l56 0 l0 64 l47 0 ZM566 712 l-60 0 l-333 -712 l60 0 l333 712 ZM183 285 l0 427 l-57 0 l-83 -71 l0 -66 l83 73 l0 -363 l57 0 Z" /><glyph glyph-name="" unicode="¹" d="M183 285 l0 427 l-57 0 l-83 -71 l0 -66 l83 73 l0 -363 l57 0 Z" /><glyph glyph-name="" unicode="¾" d="M782 64 l0 53 l-47 0 l0 105 l-56 0 l0 -105 l-110 0 l151 310 l-62 0 l-151 -310 l0 -53 l172 0 l0 -64 l56 0 l0 64 l47 0 ZM619 712 l-60 0 l-334 -712 l60 0 l334 712 ZM308 405 q0 40 -16 64 q-16 24 -45 36 q26 12 40 35 q14 23 14 57 q-1 54 -34 86 q-34 32 -89 33 q-51 0 -86 -30 q-34 -31 -38 -85 l57 0 q3 30 20 46 q18 17 47 17 q28 0 47 -17 q18 -17 19 -51 q0 -31 -17 -49 q-17 -19 -51 -19 l-9 0 l0 -50 l9 0 q38 0 56 -20 q19 -19 19 -53 q-1 -35 -21 -54 q-20 -19 -51 -19 q-29 0 -50 16 q-21 16 -23 51 l-58 0 q4 -61 41 -90 q37 -29 90 -29 q55 0 91 32 q37 31 38 93 l0 0 Z" /><glyph glyph-name="" unicode="³" d="M308 405 q0 40 -16 64 q-16 24 -45 36 q26 12 40 35 q14 23 14 57 q-1 54 -34 86 q-34 32 -89 33 q-51 0 -86 -30 q-34 -31 -38 -85 l57 0 q3 30 20 46 q18 17 47 17 q28 0 47 -17 q18 -17 19 -51 q0 -31 -17 -49 q-17 -19 -51 -19 l-9 0 l0 -50 l9 0 q38 0 56 -20 q19 -19 19 -53 q-1 -35 -21 -54 q-20 -19 -51 -19 q-29 0 -50 16 q-21 16 -23 51 l-58 0 q4 -61 41 -90 q37 -29 90 -29 q55 0 91 32 q37 31 38 93 l0 0 Z" /><glyph glyph-name="" unicode="²" d="M294 285 l0 52 l-177 0 l138 168 q20 23 29 44 q10 21 10 48 q-1 55 -34 87 q-34 31 -89 32 q-55 -1 -88 -32 q-34 -32 -35 -87 l58 0 q1 36 20 52 q19 15 45 15 q31 0 48 -18 q17 -19 17 -49 q0 -16 -5 -30 q-6 -13 -18 -28 l-165 -202 l0 -52 l246 0 Z" /><glyph glyph-name="" unicode="¦" d="M199 436 l0 350 l-72 0 l0 -350 l72 0 ZM199 -74 l0 350 l-72 0 l0 -350 l72 0 Z" /><glyph glyph-name="" unicode="&#x2212;" d="M470 236 l0 67 l-418 0 l0 -67 l418 0 Z" /><glyph glyph-name="" unicode="×" d="M457 119 l-152 151 l152 151 l-45 45 l-151 -152 l-151 152 l-45 -45 l151 -151 l-151 -151 l45 -45 l151 151 l151 -151 l45 45 Z" /><glyph glyph-name="" unicode="Ä" d="M599 0 l-261 712 l-64 0 l-262 -712 l81 0 l57 161 l311 0 l57 -161 l81 0 ZM439 227 l-266 0 l134 376 l132 -376 ZM453 832 q0 19 -13 32 q-13 13 -32 14 q-19 -1 -32 -14 q-13 -13 -13 -32 q0 -19 13 -32 q13 -13 32 -13 q19 0 32 13 q13 13 13 32 l0 0 ZM241 832 q0 19 -13 32 q-13 13 -32 14 q-19 -1 -32 -14 q-13 -13 -13 -32 q0 -19 13 -32 q13 -13 32 -13 q19 0 32 13 q13 13 13 32 l0 0 Z" /><glyph glyph-name="" unicode="Å" d="M599 0 l-261 712 l-64 0 l-262 -712 l81 0 l57 161 l311 0 l57 -161 l81 0 ZM439 227 l-266 0 l134 376 l132 -376 ZM420 867 q-1 51 -35 84 q-33 33 -83 34 q-50 -1 -83 -35 q-34 -33 -35 -83 q1 -50 35 -84 q33 -34 83 -35 q50 1 83 35 q34 34 35 84 l0 0 ZM371 867 q-1 -29 -20 -49 q-20 -19 -49 -20 q-29 1 -49 20 q-19 20 -20 49 q1 29 20 48 q20 19 49 20 q29 -1 49 -20 q19 -19 20 -48 l0 0 Z" /><glyph glyph-name="" unicode="Ç" d="M525 81 l-51 51 q-32 -33 -65 -51 q-34 -19 -84 -19 q-36 0 -67 13 q-32 13 -56 37 q-33 31 -42 83 q-9 52 -8 161 q-1 109 8 161 q9 52 42 83 q24 24 56 37 q31 13 67 13 q50 0 84 -19 q33 -18 65 -51 l51 51 q-40 40 -88 63 q-48 24 -112 24 q-53 0 -99 -19 q-47 -19 -83 -55 q-48 -48 -59 -112 q-10 -65 -8 -176 q-2 -111 8 -175 q11 -65 59 -113 q36 -36 83 -55 q46 -19 99 -19 q64 0 112 24 q48 23 88 63 l0 0 ZM370 -67 l-67 0 l-71 -149 l79 0 l59 149 Z" /><glyph glyph-name="" unicode="É" d="M545 0 l0 68 l-366 0 l0 257 l312 0 l0 68 l-312 0 l0 251 l366 0 l0 68 l-442 0 l0 -712 l442 0 ZM438 934 l-86 0 l-88 -153 l66 0 l108 153 Z" /><glyph glyph-name="" unicode="Ñ" d="M629 0 l0 712 l-76 0 l0 -569 l-378 569 l-72 0 l0 -712 l76 0 l0 571 l378 -571 l72 0 ZM523 846 l-37 36 q-21 -21 -35 -27 q-13 -6 -24 -5 q-15 0 -28 5 q-13 5 -28 15 q-18 11 -34 18 q-16 6 -37 6 q-18 1 -40 -9 q-22 -9 -55 -42 l37 -36 q22 22 35 27 q13 6 24 5 q15 0 28 -6 q14 -6 28 -15 q18 -11 34 -17 q16 -6 37 -6 q17 -1 39 9 q23 9 56 42 l0 0 Z" /><glyph glyph-name="" unicode="Ö" d="M574 356 q2 111 -8 176 q-11 64 -59 112 q-36 36 -82 55 q-47 19 -100 19 q-53 0 -100 -19 q-46 -19 -82 -55 q-48 -48 -59 -112 q-10 -65 -8 -176 q-2 -111 8 -175 q11 -65 59 -113 q36 -36 82 -55 q47 -19 100 -19 q53 0 100 19 q46 19 82 55 q48 48 59 113 q10 64 8 175 l0 0 ZM498 356 q1 -109 -8 -160 q-9 -52 -42 -83 q-24 -24 -55 -37 q-32 -14 -68 -14 q-36 0 -67 14 q-32 13 -56 37 q-33 31 -42 83 q-9 51 -8 160 q-1 109 8 160 q9 52 42 83 q24 24 56 38 q31 13 67 13 q36 0 68 -13 q31 -14 55 -38 q33 -31 42 -83 q9 -51 8 -160 l0 0 ZM476 832 q0 19 -13 32 q-13 13 -32 14 q-19 -1 -32 -14 q-13 -13 -13 -32 q0 -19 13 -32 q13 -13 32 -13 q19 0 32 13 q13 13 13 32 l0 0 ZM264 832 q0 19 -13 32 q-13 13 -32 14 q-19 -1 -32 -14 q-13 -13 -13 -32 q0 -19 13 -32 q13 -13 32 -13 q19 0 32 13 q13 13 13 32 l0 0 Z" /><glyph glyph-name="" unicode="Ü" d="M590 235 l0 477 l-76 0 l0 -471 q-1 -82 -47 -130 q-47 -48 -126 -49 q-79 1 -125 49 q-46 48 -47 130 l0 471 l-76 0 l0 -477 q2 -108 70 -174 q68 -65 178 -67 q110 2 179 67 q68 66 70 174 l0 0 ZM492 832 q0 19 -13 32 q-13 13 -32 14 q-19 -1 -32 -14 q-13 -13 -13 -32 q0 -19 13 -32 q13 -13 32 -13 q19 0 32 13 q13 13 13 32 l0 0 ZM280 832 q0 19 -13 32 q-13 13 -32 14 q-19 -1 -32 -14 q-13 -13 -13 -32 q0 -19 13 -32 q13 -13 32 -13 q19 0 32 13 q13 13 13 32 l0 0 Z" /><glyph glyph-name="" unicode="á" d="M441 0 l0 334 q0 80 -49 122 q-49 42 -148 42 q-59 1 -100 -15 q-42 -16 -74 -58 l49 -45 q21 30 49 43 q29 13 75 13 q67 0 97 -27 q30 -27 29 -81 l0 -47 l-148 0 q-83 -1 -126 -39 q-44 -38 -44 -103 q0 -30 10 -56 q9 -26 27 -44 q23 -24 56 -34 q33 -11 83 -11 q48 0 81 12 q32 11 61 41 l0 -47 l72 0 ZM369 174 q0 -61 -25 -85 q-23 -22 -51 -28 q-27 -6 -59 -5 q-58 0 -86 21 q-27 20 -27 63 q0 43 27 65 q28 22 83 22 l138 0 l0 -53 ZM377 747 l-86 0 l-88 -153 l66 0 l108 153 Z" /><glyph glyph-name="" unicode="à" d="M441 0 l0 334 q0 80 -49 122 q-49 42 -148 42 q-59 1 -100 -15 q-42 -16 -74 -58 l49 -45 q21 30 49 43 q29 13 75 13 q67 0 97 -27 q30 -27 29 -81 l0 -47 l-148 0 q-83 -1 -126 -39 q-44 -38 -44 -103 q0 -30 10 -56 q9 -26 27 -44 q23 -24 56 -34 q33 -11 83 -11 q48 0 81 12 q32 11 61 41 l0 -47 l72 0 ZM369 174 q0 -61 -25 -85 q-23 -22 -51 -28 q-27 -6 -59 -5 q-58 0 -86 21 q-27 20 -27 63 q0 43 27 65 q28 22 83 22 l138 0 l0 -53 ZM301 594 l-88 153 l-86 0 l108 -153 l66 0 Z" /><glyph glyph-name="" unicode="â" d="M441 0 l0 334 q0 80 -49 122 q-49 42 -148 42 q-59 1 -100 -15 q-42 -16 -74 -58 l49 -45 q21 30 49 43 q29 13 75 13 q67 0 97 -27 q30 -27 29 -81 l0 -47 l-148 0 q-83 -1 -126 -39 q-44 -38 -44 -103 q0 -30 10 -56 q9 -26 27 -44 q23 -24 56 -34 q33 -11 83 -11 q48 0 81 12 q32 11 61 41 l0 -47 l72 0 ZM369 174 q0 -61 -25 -85 q-23 -22 -51 -28 q-27 -6 -59 -5 q-58 0 -86 21 q-27 20 -27 63 q0 43 27 65 q28 22 83 22 l138 0 l0 -53 ZM411 594 l-125 153 l-68 0 l-125 -153 l69 0 l90 104 l90 -104 l69 0 Z" /><glyph glyph-name="" unicode="ä" d="M441 0 l0 334 q0 80 -49 122 q-49 42 -148 42 q-59 1 -100 -15 q-42 -16 -74 -58 l49 -45 q21 30 49 43 q29 13 75 13 q67 0 97 -27 q30 -27 29 -81 l0 -47 l-148 0 q-83 -1 -126 -39 q-44 -38 -44 -103 q0 -30 10 -56 q9 -26 27 -44 q23 -24 56 -34 q33 -11 83 -11 q48 0 81 12 q32 11 61 41 l0 -47 l72 0 ZM369 174 q0 -61 -25 -85 q-23 -22 -51 -28 q-27 -6 -59 -5 q-58 0 -86 21 q-27 20 -27 63 q0 43 27 65 q28 22 83 22 l138 0 l0 -53 ZM403 645 q0 19 -13 32 q-13 13 -32 14 q-19 -1 -32 -14 q-13 -13 -13 -32 q0 -19 13 -32 q13 -13 32 -13 q19 0 32 13 q13 13 13 32 l0 0 ZM191 645 q0 19 -13 32 q-13 13 -32 14 q-19 -1 -32 -14 q-13 -13 -13 -32 q0 -19 13 -32 q13 -13 32 -13 q19 0 32 13 q13 13 13 32 l0 0 Z" /><glyph glyph-name="" unicode="ã" d="M441 0 l0 334 q0 80 -49 122 q-49 42 -148 42 q-59 1 -100 -15 q-42 -16 -74 -58 l49 -45 q21 30 49 43 q29 13 75 13 q67 0 97 -27 q30 -27 29 -81 l0 -47 l-148 0 q-83 -1 -126 -39 q-44 -38 -44 -103 q0 -30 10 -56 q9 -26 27 -44 q23 -24 56 -34 q33 -11 83 -11 q48 0 81 12 q32 11 61 41 l0 -47 l72 0 ZM369 174 q0 -61 -25 -85 q-23 -22 -51 -28 q-27 -6 -59 -5 q-58 0 -86 21 q-27 20 -27 63 q0 43 27 65 q28 22 83 22 l138 0 l0 -53 ZM409 659 l-37 36 q-21 -21 -35 -27 q-13 -6 -24 -5 q-15 0 -28 5 q-13 5 -28 15 q-18 11 -34 18 q-16 6 -37 6 q-18 1 -40 -9 q-22 -9 -55 -42 l37 -36 q22 22 35 27 q13 6 24 5 q15 0 28 -6 q14 -6 28 -15 q18 -11 34 -17 q16 -6 37 -6 q17 -1 39 9 q23 9 56 42 l0 0 Z" /><glyph glyph-name="" unicode="å" d="M441 0 l0 334 q0 80 -49 122 q-49 42 -148 42 q-59 1 -100 -15 q-42 -16 -74 -58 l49 -45 q21 30 49 43 q29 13 75 13 q67 0 97 -27 q30 -27 29 -81 l0 -47 l-148 0 q-83 -1 -126 -39 q-44 -38 -44 -103 q0 -30 10 -56 q9 -26 27 -44 q23 -24 56 -34 q33 -11 83 -11 q48 0 81 12 q32 11 61 41 l0 -47 l72 0 ZM369 174 q0 -61 -25 -85 q-23 -22 -51 -28 q-27 -6 -59 -5 q-58 0 -86 21 q-27 20 -27 63 q0 43 27 65 q28 22 83 22 l138 0 l0 -53 ZM370 687 q-1 51 -35 84 q-33 33 -83 34 q-50 -1 -83 -35 q-34 -33 -35 -83 q1 -50 35 -84 q33 -34 83 -35 q50 1 83 35 q34 34 35 84 l0 0 ZM321 687 q-1 -29 -20 -49 q-20 -19 -49 -20 q-29 1 -49 20 q-19 20 -20 49 q1 29 20 48 q20 19 49 20 q29 -1 49 -20 q19 -19 20 -48 l0 0 Z" /><glyph glyph-name="" unicode="ç" d="M443 67 l-49 47 q-27 -30 -53 -43 q-26 -13 -60 -13 q-36 0 -65 14 q-29 14 -49 42 q-17 23 -25 55 q-7 31 -7 77 q0 46 7 77 q8 32 25 55 q20 28 49 42 q29 14 65 14 q34 0 60 -12 q26 -13 53 -43 l49 46 q-37 41 -75 57 q-37 17 -87 16 q-95 0 -155 -63 q-61 -63 -63 -189 q2 -126 63 -189 q60 -63 155 -63 q50 -1 87 16 q38 16 75 57 l0 0 ZM313 -67 l-67 0 l-71 -149 l79 0 l59 149 Z" /><glyph glyph-name="" unicode="é" d="M467 227 l0 33 q-1 111 -53 174 q-53 63 -149 64 q-95 -1 -148 -66 q-53 -66 -54 -186 q1 -130 59 -191 q57 -62 156 -61 q62 0 103 19 q41 19 77 57 l-49 43 q-28 -29 -58 -43 q-29 -13 -71 -13 q-71 1 -108 45 q-37 44 -37 125 l332 0 ZM395 281 l-260 0 q1 29 4 46 q3 17 11 36 q15 34 45 54 q30 20 70 20 q40 0 70 -20 q30 -20 45 -54 q8 -19 11 -36 q3 -17 4 -46 l0 0 ZM393 747 l-86 0 l-88 -153 l66 0 l108 153 Z" /><glyph glyph-name="" unicode="è" d="M467 227 l0 33 q-1 111 -53 174 q-53 63 -149 64 q-95 -1 -148 -66 q-53 -66 -54 -186 q1 -130 59 -191 q57 -62 156 -61 q62 0 103 19 q41 19 77 57 l-49 43 q-28 -29 -58 -43 q-29 -13 -71 -13 q-71 1 -108 45 q-37 44 -37 125 l332 0 ZM395 281 l-260 0 q1 29 4 46 q3 17 11 36 q15 34 45 54 q30 20 70 20 q40 0 70 -20 q30 -20 45 -54 q8 -19 11 -36 q3 -17 4 -46 l0 0 ZM317 594 l-88 153 l-86 0 l108 -153 l66 0 Z" /><glyph glyph-name="" unicode="ê" d="M467 227 l0 33 q-1 111 -53 174 q-53 63 -149 64 q-95 -1 -148 -66 q-53 -66 -54 -186 q1 -130 59 -191 q57 -62 156 -61 q62 0 103 19 q41 19 77 57 l-49 43 q-28 -29 -58 -43 q-29 -13 -71 -13 q-71 1 -108 45 q-37 44 -37 125 l332 0 ZM395 281 l-260 0 q1 29 4 46 q3 17 11 36 q15 34 45 54 q30 20 70 20 q40 0 70 -20 q30 -20 45 -54 q8 -19 11 -36 q3 -17 4 -46 l0 0 ZM427 594 l-125 153 l-68 0 l-125 -153 l69 0 l90 104 l90 -104 l69 0 Z" /><glyph glyph-name="" unicode="ë" d="M467 227 l0 33 q-1 111 -53 174 q-53 63 -149 64 q-95 -1 -148 -66 q-53 -66 -54 -186 q1 -130 59 -191 q57 -62 156 -61 q62 0 103 19 q41 19 77 57 l-49 43 q-28 -29 -58 -43 q-29 -13 -71 -13 q-71 1 -108 45 q-37 44 -37 125 l332 0 ZM395 281 l-260 0 q1 29 4 46 q3 17 11 36 q15 34 45 54 q30 20 70 20 q40 0 70 -20 q30 -20 45 -54 q8 -19 11 -36 q3 -17 4 -46 l0 0 ZM419 645 q0 19 -13 32 q-13 13 -32 14 q-19 -1 -32 -14 q-13 -13 -13 -32 q0 -19 13 -32 q13 -13 32 -13 q19 0 32 13 q13 13 13 32 l0 0 ZM207 645 q0 19 -13 32 q-13 13 -32 14 q-19 -1 -32 -14 q-13 -13 -13 -32 q0 -19 13 -32 q13 -13 32 -13 q19 0 32 13 q13 13 13 32 l0 0 Z" /><glyph glyph-name="" unicode="í" d="M162 0 l0 492 l-72 0 l0 -492 l72 0 ZM264 747 l-86 0 l-88 -153 l66 0 l108 153 Z" /><glyph glyph-name="" unicode="ì" d="M162 0 l0 492 l-72 0 l0 -492 l72 0 ZM264 594 l-88 153 l-86 0 l108 -153 l66 0 Z" /><glyph glyph-name="" unicode="î" d="M162 0 l0 492 l-72 0 l0 -492 l72 0 ZM408 594 l-125 153 l-68 0 l-125 -153 l69 0 l90 104 l90 -104 l69 0 Z" /><glyph glyph-name="" unicode="ï" d="M162 0 l0 492 l-72 0 l0 -492 l72 0 ZM392 645 q0 19 -13 32 q-13 13 -32 14 q-19 -1 -32 -14 q-13 -13 -13 -32 q0 -19 13 -32 q13 -13 32 -13 q19 0 32 13 q13 13 13 32 l0 0 ZM180 645 q0 19 -13 32 q-13 13 -32 14 q-19 -1 -32 -14 q-13 -13 -13 -32 q0 -19 13 -32 q13 -13 32 -13 q19 0 32 13 q13 13 13 32 l0 0 Z" /><glyph glyph-name="" unicode="ñ" d="M477 0 l0 315 q0 43 -12 77 q-13 34 -39 60 q-23 23 -54 34 q-32 12 -72 12 q-41 0 -76 -15 q-36 -15 -62 -45 l0 54 l-72 0 l0 -492 l72 0 l0 303 q1 65 33 98 q33 33 89 33 q56 0 88 -33 q32 -33 33 -98 l0 -303 l72 0 ZM442 659 l-37 36 q-21 -21 -35 -27 q-13 -6 -24 -5 q-15 0 -28 5 q-13 5 -28 15 q-18 11 -34 18 q-16 6 -37 6 q-18 1 -40 -9 q-22 -9 -55 -42 l37 -36 q22 22 35 27 q13 6 24 5 q15 0 28 -6 q14 -6 28 -15 q18 -11 34 -17 q16 -6 37 -6 q17 -1 39 9 q23 9 56 42 l0 0 Z" /><glyph glyph-name="" unicode="ó" d="M466 246 q1 57 -11 107 q-12 50 -49 89 q-25 26 -61 41 q-35 15 -80 15 q-45 0 -80 -15 q-35 -15 -61 -41 q-37 -39 -49 -89 q-12 -50 -11 -107 q-1 -57 11 -107 q12 -50 49 -89 q26 -26 61 -41 q35 -15 80 -15 q45 0 80 15 q36 15 61 41 q37 39 49 89 q12 50 11 107 l0 0 ZM394 246 q1 -42 -6 -83 q-7 -41 -33 -69 q-17 -17 -40 -27 q-24 -9 -50 -9 q-26 0 -49 9 q-23 10 -40 27 q-26 28 -33 69 q-8 41 -7 83 q-1 42 7 83 q7 41 33 69 q17 17 40 27 q23 9 49 9 q26 0 50 -9 q23 -10 40 -27 q26 -28 33 -69 q7 -41 6 -83 l0 0 ZM390 747 l-86 0 l-88 -153 l66 0 l108 153 Z" /><glyph glyph-name="" unicode="ò" d="M466 246 q1 57 -11 107 q-12 50 -49 89 q-25 26 -61 41 q-35 15 -80 15 q-45 0 -80 -15 q-35 -15 -61 -41 q-37 -39 -49 -89 q-12 -50 -11 -107 q-1 -57 11 -107 q12 -50 49 -89 q26 -26 61 -41 q35 -15 80 -15 q45 0 80 15 q36 15 61 41 q37 39 49 89 q12 50 11 107 l0 0 ZM394 246 q1 -42 -6 -83 q-7 -41 -33 -69 q-17 -17 -40 -27 q-24 -9 -50 -9 q-26 0 -49 9 q-23 10 -40 27 q-26 28 -33 69 q-8 41 -7 83 q-1 42 7 83 q7 41 33 69 q17 17 40 27 q23 9 49 9 q26 0 50 -9 q23 -10 40 -27 q26 -28 33 -69 q7 -41 6 -83 l0 0 ZM304 594 l-88 153 l-86 0 l108 -153 l66 0 Z" /><glyph glyph-name="" unicode="ô" d="M466 246 q1 57 -11 107 q-12 50 -49 89 q-25 26 -61 41 q-35 15 -80 15 q-45 0 -80 -15 q-35 -15 -61 -41 q-37 -39 -49 -89 q-12 -50 -11 -107 q-1 -57 11 -107 q12 -50 49 -89 q26 -26 61 -41 q35 -15 80 -15 q45 0 80 15 q36 15 61 41 q37 39 49 89 q12 50 11 107 l0 0 ZM394 246 q1 -42 -6 -83 q-7 -41 -33 -69 q-17 -17 -40 -27 q-24 -9 -50 -9 q-26 0 -49 9 q-23 10 -40 27 q-26 28 -33 69 q-8 41 -7 83 q-1 42 7 83 q7 41 33 69 q17 17 40 27 q23 9 49 9 q26 0 50 -9 q23 -10 40 -27 q26 -28 33 -69 q7 -41 6 -83 l0 0 ZM424 594 l-125 153 l-68 0 l-125 -153 l69 0 l90 104 l90 -104 l69 0 Z" /><glyph glyph-name="" unicode="ö" d="M466 246 q1 57 -11 107 q-12 50 -49 89 q-25 26 -61 41 q-35 15 -80 15 q-45 0 -80 -15 q-35 -15 -61 -41 q-37 -39 -49 -89 q-12 -50 -11 -107 q-1 -57 11 -107 q12 -50 49 -89 q26 -26 61 -41 q35 -15 80 -15 q45 0 80 15 q36 15 61 41 q37 39 49 89 q12 50 11 107 l0 0 ZM394 246 q1 -42 -6 -83 q-7 -41 -33 -69 q-17 -17 -40 -27 q-24 -9 -50 -9 q-26 0 -49 9 q-23 10 -40 27 q-26 28 -33 69 q-8 41 -7 83 q-1 42 7 83 q7 41 33 69 q17 17 40 27 q23 9 49 9 q26 0 50 -9 q23 -10 40 -27 q26 -28 33 -69 q7 -41 6 -83 l0 0 ZM416 645 q0 19 -13 32 q-13 13 -32 14 q-19 -1 -32 -14 q-13 -13 -13 -32 q0 -19 13 -32 q13 -13 32 -13 q19 0 32 13 q13 13 13 32 l0 0 ZM204 645 q0 19 -13 32 q-13 13 -32 14 q-19 -1 -32 -14 q-13 -13 -13 -32 q0 -19 13 -32 q13 -13 32 -13 q19 0 32 13 q13 13 13 32 l0 0 Z" /><glyph glyph-name="" unicode="õ" d="M466 246 q1 57 -11 107 q-12 50 -49 89 q-25 26 -61 41 q-35 15 -80 15 q-45 0 -80 -15 q-35 -15 -61 -41 q-37 -39 -49 -89 q-12 -50 -11 -107 q-1 -57 11 -107 q12 -50 49 -89 q26 -26 61 -41 q35 -15 80 -15 q45 0 80 15 q36 15 61 41 q37 39 49 89 q12 50 11 107 l0 0 ZM394 246 q1 -42 -6 -83 q-7 -41 -33 -69 q-17 -17 -40 -27 q-24 -9 -50 -9 q-26 0 -49 9 q-23 10 -40 27 q-26 28 -33 69 q-8 41 -7 83 q-1 42 7 83 q7 41 33 69 q17 17 40 27 q23 9 49 9 q26 0 50 -9 q23 -10 40 -27 q26 -28 33 -69 q7 -41 6 -83 l0 0 ZM422 659 l-37 36 q-21 -21 -35 -27 q-13 -6 -24 -5 q-15 0 -28 5 q-13 5 -28 15 q-18 11 -34 18 q-16 6 -37 6 q-18 1 -40 -9 q-22 -9 -55 -42 l37 -36 q22 22 35 27 q13 6 24 5 q15 0 28 -6 q14 -6 28 -15 q18 -11 34 -17 q16 -6 37 -6 q17 -1 39 9 q23 9 56 42 l0 0 Z" /><glyph glyph-name="" unicode="ú" d="M472 0 l0 492 l-72 0 l0 -303 q-1 -65 -34 -98 q-33 -33 -89 -33 q-56 0 -88 33 q-31 33 -32 98 l0 303 l-72 0 l0 -314 q0 -43 12 -78 q12 -34 38 -60 q23 -23 55 -34 q32 -12 72 -12 q42 0 77 16 q36 15 62 45 l0 -55 l71 0 ZM403 747 l-86 0 l-88 -153 l66 0 l108 153 Z" /><glyph glyph-name="" unicode="ù" d="M472 0 l0 492 l-72 0 l0 -303 q-1 -65 -34 -98 q-33 -33 -89 -33 q-56 0 -88 33 q-31 33 -32 98 l0 303 l-72 0 l0 -314 q0 -43 12 -78 q12 -34 38 -60 q23 -23 55 -34 q32 -12 72 -12 q42 0 77 16 q36 15 62 45 l0 -55 l71 0 ZM327 594 l-88 153 l-86 0 l108 -153 l66 0 Z" /><glyph glyph-name="" unicode="û" d="M472 0 l0 492 l-72 0 l0 -303 q-1 -65 -34 -98 q-33 -33 -89 -33 q-56 0 -88 33 q-31 33 -32 98 l0 303 l-72 0 l0 -314 q0 -43 12 -78 q12 -34 38 -60 q23 -23 55 -34 q32 -12 72 -12 q42 0 77 16 q36 15 62 45 l0 -55 l71 0 ZM437 594 l-125 153 l-68 0 l-125 -153 l69 0 l90 104 l90 -104 l69 0 Z" /><glyph glyph-name="" unicode="ü" d="M472 0 l0 492 l-72 0 l0 -303 q-1 -65 -34 -98 q-33 -33 -89 -33 q-56 0 -88 33 q-31 33 -32 98 l0 303 l-72 0 l0 -314 q0 -43 12 -78 q12 -34 38 -60 q23 -23 55 -34 q32 -12 72 -12 q42 0 77 16 q36 15 62 45 l0 -55 l71 0 ZM429 645 q0 19 -13 32 q-13 13 -32 14 q-19 -1 -32 -14 q-13 -13 -13 -32 q0 -19 13 -32 q13 -13 32 -13 q19 0 32 13 q13 13 13 32 l0 0 ZM217 645 q0 19 -13 32 q-13 13 -32 14 q-19 -1 -32 -14 q-13 -13 -13 -32 q0 -19 13 -32 q13 -13 32 -13 q19 0 32 13 q13 13 13 32 l0 0 Z" /><glyph glyph-name="" unicode="°" d="M396 557 q-2 70 -48 116 q-46 46 -116 48 q-70 -2 -117 -48 q-46 -46 -48 -116 q2 -70 48 -116 q47 -46 117 -48 q70 2 116 48 q46 46 48 116 l0 0 ZM335 557 q-1 -46 -29 -75 q-29 -30 -74 -31 q-45 1 -74 31 q-29 29 -30 75 q1 46 29 76 q29 29 74 30 q45 -1 74 -30 q29 -30 30 -76 l0 0 Z" /><glyph glyph-name="" unicode="®" d="M802 356 q-4 154 -106 256 q-102 102 -256 106 q-154 -4 -256 -106 q-102 -102 -106 -256 q4 -154 106 -256 q102 -102 256 -106 q154 4 256 106 q102 102 106 256 l0 0 ZM745 356 q-3 -131 -89 -218 q-87 -88 -216 -91 q-129 3 -215 91 q-86 87 -89 218 q3 131 89 218 q86 88 215 91 q129 -3 216 -91 q86 -87 89 -218 l0 0 ZM592 158 l-95 169 q37 11 61 38 q23 28 24 71 q-1 51 -37 85 q-35 33 -88 34 l-135 0 l0 -397 l55 0 l0 162 l60 0 l91 -162 l64 0 ZM526 436 q-1 -31 -21 -49 q-20 -19 -54 -20 l-74 0 l0 139 l74 0 q34 -1 54 -20 q20 -19 21 -50 l0 0 Z" /><glyph glyph-name="" unicode="©" d="M802 356 q-4 154 -106 256 q-102 102 -256 106 q-154 -4 -256 -106 q-102 -102 -106 -256 q4 -154 106 -256 q102 -102 256 -106 q154 4 256 106 q102 102 106 256 l0 0 ZM744 356 q-3 -130 -89 -217 q-86 -88 -215 -91 q-129 3 -214 91 q-86 87 -89 217 q3 130 89 217 q85 88 214 91 q129 -3 215 -91 q86 -87 89 -217 l0 0 ZM576 205 l-36 36 q-24 -21 -46 -30 q-22 -8 -49 -8 q-67 2 -95 45 q-28 43 -27 108 q-1 65 27 109 q28 43 95 45 q27 0 49 -9 q22 -9 46 -30 l36 36 q-30 27 -60 40 q-30 13 -71 13 q-87 -2 -132 -58 q-46 -56 -46 -146 q0 -89 46 -145 q45 -56 132 -58 q41 0 72 13 q30 13 59 39 l0 0 Z" /><glyph glyph-name="" unicode="&#x2122;" d="M781 285 l0 427 l-57 0 l-130 -259 l-130 259 l-58 0 l0 -427 l58 0 l0 308 l102 -202 l56 0 l102 202 l0 -308 l57 0 ZM331 659 l0 53 l-295 0 l0 -53 l118 0 l0 -374 l58 0 l0 374 l119 0 Z" /><glyph glyph-name="" unicode="&#x2260;" d="M485 151 l0 66 l-224 0 l98 103 l126 0 l0 67 l-67 0 l67 70 l-45 41 l-104 -111 l-284 0 l0 -67 l225 0 l-99 -103 l-126 0 l0 -66 l67 0 l-67 -71 l46 -40 l103 111 l284 0 Z" /><glyph glyph-name="" unicode="&#x221e;" d="M740 267 q-1 69 -43 114 q-42 44 -115 46 q-52 0 -93 -26 q-42 -26 -85 -80 q-44 54 -86 80 q-42 26 -91 26 q-73 -2 -116 -46 q-43 -45 -44 -114 q1 -69 44 -114 q43 -44 116 -46 q50 0 92 26 q42 25 85 79 q43 -54 85 -79 q41 -25 93 -25 q73 2 115 46 q42 44 43 113 l0 0 ZM671 266 q-1 -43 -26 -67 q-25 -25 -66 -26 q-36 1 -66 26 q-30 24 -64 67 q34 43 64 68 q30 24 66 25 q41 -1 66 -25 q25 -25 26 -68 l0 0 ZM358 266 q-34 -43 -63 -67 q-30 -25 -66 -26 q-41 1 -67 26 q-25 24 -26 67 q1 43 26 68 q26 25 67 26 q36 -1 66 -26 q29 -25 63 -68 l0 0 Z" /><glyph glyph-name="" unicode="±" d="M470 289 l0 67 l-175 0 l0 175 l-67 0 l0 -175 l-176 0 l0 -67 l176 0 l0 -177 l67 0 l0 177 l175 0 ZM470 0 l0 67 l-418 0 l0 -67 l418 0 Z" /><glyph glyph-name="" unicode="&#x2264;" d="M862 544 l-49 49 l-558 -557 l1 516 l-66 -67 l0 -564 l564 0 l66 66 l-515 -1 l557 558 Z" /><glyph glyph-name="" unicode="&#x2265;" d="M837 -79 l0 564 l-66 67 l1 -516 l-558 557 l-49 -49 l557 -558 l-515 1 l66 -66 l564 0 Z" /><glyph glyph-name="" unicode="µ" d="M471 0 l0 492 l-72 0 l0 -303 q-1 -65 -34 -98 q-33 -33 -89 -33 q-56 0 -88 33 q-32 33 -33 98 l0 303 l-72 0 l0 -712 l72 0 l0 251 q20 -18 46 -27 q27 -10 60 -10 q41 0 77 16 q35 15 61 45 l0 -55 l72 0 Z" /><glyph glyph-name="" unicode="&#x2202;" d="M453 244 l0 258 q0 98 -52 156 q-52 59 -153 60 q-54 0 -91 -15 q-37 -16 -75 -51 l46 -46 q26 24 51 37 q26 13 67 13 q71 -2 104 -45 q32 -43 31 -104 l0 -70 q-28 34 -60 47 q-32 12 -68 11 q-44 -1 -77 -16 q-33 -15 -53 -37 q-35 -37 -46 -87 q-12 -50 -11 -111 q-1 -57 11 -107 q11 -50 46 -88 q24 -26 59 -40 q34 -15 78 -15 q44 0 78 15 q34 14 58 40 q35 38 47 88 q11 50 10 107 l0 0 ZM381 244 q1 -42 -6 -82 q-6 -40 -31 -68 q-17 -17 -38 -27 q-21 -9 -46 -9 q-25 0 -47 9 q-21 10 -38 27 q-25 28 -31 68 q-7 40 -6 82 q-1 42 6 83 q6 40 31 68 q17 17 38 27 q22 9 47 9 q25 0 46 -9 q21 -10 38 -27 q25 -28 31 -68 q7 -41 6 -83 l0 0 Z" /><glyph glyph-name="" unicode="&#x2211;" d="M500 -220 l0 68 l-356 0 l182 400 l0 69 l-180 375 l353 0 l0 68 l-441 0 l0 -64 l201 -413 l-202 -438 l0 -65 l443 0 Z" /><glyph glyph-name="" unicode="&#x220f;" d="M593 -220 l0 980 l-490 0 l0 -980 l76 0 l0 912 l338 0 l0 -912 l76 0 Z" /><glyph glyph-name="" unicode="&#x3c0;" d="M490 0 l0 492 l-389 0 l0 -492 l70 0 l0 427 l250 0 l0 -427 l69 0 Z" /><glyph glyph-name="" unicode="&#x222b;" d="M334 653 l0 62 l-49 0 q-65 -1 -100 -38 q-36 -37 -36 -102 l0 -654 q0 -37 -18 -57 q-18 -20 -55 -20 l-39 0 l0 -62 l50 0 q65 1 100 38 q36 37 36 102 l0 654 q0 37 18 57 q18 20 55 20 l38 0 Z" /><glyph glyph-name="" unicode="&#x3a9;" d="M574 0 l0 67 l-83 0 q20 16 34 33 q13 16 22 34 q21 43 24 101 q4 59 3 121 q2 111 -8 176 q-11 64 -59 112 q-36 36 -82 55 q-47 19 -100 19 q-53 0 -100 -19 q-46 -19 -82 -55 q-48 -48 -59 -112 q-10 -65 -8 -176 q-1 -62 3 -121 q3 -58 24 -101 q9 -18 22 -34 q13 -17 33 -33 l-82 0 l0 -67 l195 0 l0 64 q-30 14 -52 31 q-23 18 -40 45 q-17 27 -22 79 q-5 52 -5 135 q-1 109 9 162 q9 52 41 83 q24 24 56 38 q31 13 67 13 q36 0 67 -13 q32 -14 56 -38 q32 -31 41 -83 q9 -53 8 -162 q1 -83 -4 -135 q-5 -52 -22 -79 q-17 -27 -40 -45 q-22 -17 -52 -31 l0 -64 l195 0 Z" /><glyph glyph-name="" unicode="¬" d="M471 103 l0 204 l-420 0 l0 -67 l353 0 l0 -137 l67 0 Z" /><glyph glyph-name="" unicode="&#x221a;" d="M532 644 l0 68 l-146 0 l-184 -576 l-115 356 l-79 0 l163 -492 l61 0 l211 644 l89 0 Z" /><glyph glyph-name="" unicode="&#x2248;" d="M490 366 l-45 45 q-28 -28 -46 -37 q-18 -8 -38 -7 q-20 0 -39 7 q-18 6 -39 16 q-28 13 -54 22 q-25 10 -51 10 q-32 1 -60 -13 q-28 -15 -69 -56 l44 -44 q28 28 46 37 q18 8 38 7 q20 0 39 -7 q18 -6 39 -16 q28 -13 54 -22 q26 -10 52 -10 q32 -1 60 13 q28 14 69 55 l0 0 ZM490 189 l-45 45 q-28 -28 -46 -37 q-18 -9 -38 -8 q-20 0 -38 7 q-18 7 -39 17 q-28 13 -54 22 q-26 9 -52 9 q-32 1 -60 -13 q-28 -14 -69 -55 l45 -45 q28 28 46 37 q18 9 38 8 q20 0 38 -7 q18 -7 39 -17 q28 -13 54 -22 q26 -9 52 -9 q32 -1 60 13 q28 14 69 55 l0 0 Z" /><glyph glyph-name="" unicode="&#x394;" d="M594 0 l-261 712 l-63 0 l-262 -712 l586 0 ZM495 66 l-387 0 l194 537 l193 -537 Z" /><glyph glyph-name="" unicode=" " d="" /><glyph glyph-name="" unicode="À" d="M599 0 l-261 712 l-64 0 l-262 -712 l81 0 l57 161 l311 0 l57 -161 l81 0 ZM439 227 l-266 0 l134 376 l132 -376 ZM351 781 l-88 153 l-86 0 l108 -153 l66 0 Z" /><glyph glyph-name="" unicode="Ã" d="M599 0 l-261 712 l-64 0 l-262 -712 l81 0 l57 161 l311 0 l57 -161 l81 0 ZM439 227 l-266 0 l134 376 l132 -376 ZM459 846 l-37 36 q-21 -21 -35 -27 q-13 -6 -24 -5 q-15 0 -28 5 q-13 5 -28 15 q-18 11 -34 18 q-16 6 -37 6 q-18 1 -40 -9 q-22 -9 -55 -42 l37 -36 q22 22 35 27 q13 6 24 5 q15 0 28 -6 q14 -6 28 -15 q18 -11 34 -17 q16 -6 37 -6 q17 -1 39 9 q23 9 56 42 l0 0 Z" /><glyph glyph-name="" unicode="Õ" d="M574 356 q2 111 -8 176 q-11 64 -59 112 q-36 36 -82 55 q-47 19 -100 19 q-53 0 -100 -19 q-46 -19 -82 -55 q-48 -48 -59 -112 q-10 -65 -8 -176 q-2 -111 8 -175 q11 -65 59 -113 q36 -36 82 -55 q47 -19 100 -19 q53 0 100 19 q46 19 82 55 q48 48 59 113 q10 64 8 175 l0 0 ZM498 356 q1 -109 -8 -160 q-9 -52 -42 -83 q-24 -24 -55 -37 q-32 -14 -68 -14 q-36 0 -67 14 q-32 13 -56 37 q-33 31 -42 83 q-9 51 -8 160 q-1 109 8 160 q9 52 42 83 q24 24 56 38 q31 13 67 13 q36 0 68 -13 q31 -14 55 -38 q33 -31 42 -83 q9 -51 8 -160 l0 0 ZM482 846 l-37 36 q-21 -21 -35 -27 q-13 -6 -24 -5 q-15 0 -28 5 q-13 5 -28 15 q-18 11 -34 18 q-16 6 -37 6 q-18 1 -40 -9 q-22 -9 -55 -42 l37 -36 q22 22 35 27 q13 6 24 5 q15 0 28 -6 q14 -6 28 -15 q18 -11 34 -17 q16 -6 37 -6 q17 -1 39 9 q23 9 56 42 l0 0 Z" /><glyph glyph-name="" unicode="÷" d="M318 449 q-1 24 -17 40 q-16 16 -40 17 q-24 -1 -40 -17 q-16 -16 -17 -40 q1 -24 17 -40 q16 -16 40 -17 q24 1 40 17 q16 16 17 40 l0 0 ZM471 236 l0 67 l-420 0 l0 -67 l420 0 ZM318 90 q-1 24 -17 40 q-16 16 -40 17 q-24 -1 -40 -17 q-16 -16 -17 -40 q1 -24 17 -40 q16 -16 40 -17 q24 1 40 17 q16 16 17 40 l0 0 Z" /><glyph glyph-name="" unicode="&#x25ca;" d="M582 352 l-257 364 l-258 -364 l258 -364 l257 364 ZM501 352 l-176 -255 l-177 255 l177 253 l176 -253 Z" /><glyph glyph-name="" unicode="ÿ" d="M436 492 l-78 0 l-134 -395 l-135 395 l-78 0 l177 -482 l-35 -96 q-11 -33 -28 -47 q-17 -14 -53 -14 l-22 0 l0 -64 l31 0 q27 0 51 8 q25 7 45 26 q10 10 19 24 q9 14 16 34 l224 611 ZM374 645 q0 19 -13 32 q-13 13 -32 14 q-19 -1 -32 -14 q-13 -13 -13 -32 q0 -19 13 -32 q13 -13 32 -13 q19 0 32 13 q13 13 13 32 l0 0 ZM162 645 q0 19 -13 32 q-13 13 -32 14 q-19 -1 -32 -14 q-13 -13 -13 -32 q0 -19 13 -32 q13 -13 32 -13 q19 0 32 13 q13 13 13 32 l0 0 Z" /><glyph glyph-name="" unicode="&#x178;" d="M506 712 l-82 0 l-166 -341 l-168 341 l-82 0 l212 -418 l0 -294 l76 0 l0 294 l210 418 ZM408 832 q0 19 -13 32 q-13 13 -32 14 q-19 -1 -32 -14 q-13 -13 -13 -32 q0 -19 13 -32 q13 -13 32 -13 q19 0 32 13 q13 13 13 32 l0 0 ZM196 832 q0 19 -13 32 q-13 13 -32 14 q-19 -1 -32 -14 q-13 -13 -13 -32 q0 -19 13 -32 q13 -13 32 -13 q19 0 32 13 q13 13 13 32 l0 0 Z" /><glyph glyph-name="" unicode="Â" d="M599 0 l-261 712 l-64 0 l-262 -712 l81 0 l57 161 l311 0 l57 -161 l81 0 ZM439 227 l-266 0 l134 376 l132 -376 ZM461 781 l-125 153 l-68 0 l-125 -153 l69 0 l90 104 l90 -104 l69 0 Z" /><glyph glyph-name="" unicode="Ê" d="M545 0 l0 68 l-366 0 l0 257 l312 0 l0 68 l-312 0 l0 251 l366 0 l0 68 l-442 0 l0 -712 l442 0 ZM472 781 l-125 153 l-68 0 l-125 -153 l69 0 l90 104 l90 -104 l69 0 Z" /><glyph glyph-name="" unicode="Á" d="M599 0 l-261 712 l-64 0 l-262 -712 l81 0 l57 161 l311 0 l57 -161 l81 0 ZM439 227 l-266 0 l134 376 l132 -376 ZM427 934 l-86 0 l-88 -153 l66 0 l108 153 Z" /><glyph glyph-name="" unicode="Ë" d="M545 0 l0 68 l-366 0 l0 257 l312 0 l0 68 l-312 0 l0 251 l366 0 l0 68 l-442 0 l0 -712 l442 0 ZM464 832 q0 19 -13 32 q-13 13 -32 14 q-19 -1 -32 -14 q-13 -13 -13 -32 q0 -19 13 -32 q13 -13 32 -13 q19 0 32 13 q13 13 13 32 l0 0 ZM252 832 q0 19 -13 32 q-13 13 -32 14 q-19 -1 -32 -14 q-13 -13 -13 -32 q0 -19 13 -32 q13 -13 32 -13 q19 0 32 13 q13 13 13 32 l0 0 Z" /><glyph glyph-name="" unicode="È" d="M545 0 l0 68 l-366 0 l0 257 l312 0 l0 68 l-312 0 l0 251 l366 0 l0 68 l-442 0 l0 -712 l442 0 ZM362 781 l-88 153 l-86 0 l108 -153 l66 0 Z" /><glyph glyph-name="" unicode="Í" d="M179 0 l0 712 l-76 0 l0 -712 l76 0 ZM277 934 l-86 0 l-88 -153 l66 0 l108 153 Z" /><glyph glyph-name="" unicode="Î" d="M179 0 l0 712 l-76 0 l0 -712 l76 0 ZM421 781 l-125 153 l-68 0 l-125 -153 l69 0 l90 104 l90 -104 l69 0 Z" /><glyph glyph-name="" unicode="Ï" d="M179 0 l0 712 l-76 0 l0 -712 l76 0 ZM405 832 q0 19 -13 32 q-13 13 -32 14 q-19 -1 -32 -14 q-13 -13 -13 -32 q0 -19 13 -32 q13 -13 32 -13 q19 0 32 13 q13 13 13 32 l0 0 ZM193 832 q0 19 -13 32 q-13 13 -32 14 q-19 -1 -32 -14 q-13 -13 -13 -32 q0 -19 13 -32 q13 -13 32 -13 q19 0 32 13 q13 13 13 32 l0 0 Z" /><glyph glyph-name="" unicode="Ì" d="M179 0 l0 712 l-76 0 l0 -712 l76 0 ZM277 781 l-88 153 l-86 0 l108 -153 l66 0 Z" /><glyph glyph-name="" unicode="Ó" d="M574 356 q2 111 -8 176 q-11 64 -59 112 q-36 36 -82 55 q-47 19 -100 19 q-53 0 -100 -19 q-46 -19 -82 -55 q-48 -48 -59 -112 q-10 -65 -8 -176 q-2 -111 8 -175 q11 -65 59 -113 q36 -36 82 -55 q47 -19 100 -19 q53 0 100 19 q46 19 82 55 q48 48 59 113 q10 64 8 175 l0 0 ZM498 356 q1 -109 -8 -160 q-9 -52 -42 -83 q-24 -24 -55 -37 q-32 -14 -68 -14 q-36 0 -67 14 q-32 13 -56 37 q-33 31 -42 83 q-9 51 -8 160 q-1 109 8 160 q9 52 42 83 q24 24 56 38 q31 13 67 13 q36 0 68 -13 q31 -14 55 -38 q33 -31 42 -83 q9 -51 8 -160 l0 0 ZM450 934 l-86 0 l-88 -153 l66 0 l108 153 Z" /><glyph glyph-name="" unicode="Ô" d="M574 356 q2 111 -8 176 q-11 64 -59 112 q-36 36 -82 55 q-47 19 -100 19 q-53 0 -100 -19 q-46 -19 -82 -55 q-48 -48 -59 -112 q-10 -65 -8 -176 q-2 -111 8 -175 q11 -65 59 -113 q36 -36 82 -55 q47 -19 100 -19 q53 0 100 19 q46 19 82 55 q48 48 59 113 q10 64 8 175 l0 0 ZM498 356 q1 -109 -8 -160 q-9 -52 -42 -83 q-24 -24 -55 -37 q-32 -14 -68 -14 q-36 0 -67 14 q-32 13 -56 37 q-33 31 -42 83 q-9 51 -8 160 q-1 109 8 160 q9 52 42 83 q24 24 56 38 q31 13 67 13 q36 0 68 -13 q31 -14 55 -38 q33 -31 42 -83 q9 -51 8 -160 l0 0 ZM484 781 l-125 153 l-68 0 l-125 -153 l69 0 l90 104 l90 -104 l69 0 Z" /><glyph glyph-name="" unicode="Ò" d="M574 356 q2 111 -8 176 q-11 64 -59 112 q-36 36 -82 55 q-47 19 -100 19 q-53 0 -100 -19 q-46 -19 -82 -55 q-48 -48 -59 -112 q-10 -65 -8 -176 q-2 -111 8 -175 q11 -65 59 -113 q36 -36 82 -55 q47 -19 100 -19 q53 0 100 19 q46 19 82 55 q48 48 59 113 q10 64 8 175 l0 0 ZM498 356 q1 -109 -8 -160 q-9 -52 -42 -83 q-24 -24 -55 -37 q-32 -14 -68 -14 q-36 0 -67 14 q-32 13 -56 37 q-33 31 -42 83 q-9 51 -8 160 q-1 109 8 160 q9 52 42 83 q24 24 56 38 q31 13 67 13 q36 0 68 -13 q31 -14 55 -38 q33 -31 42 -83 q9 -51 8 -160 l0 0 ZM374 781 l-88 153 l-86 0 l108 -153 l66 0 Z" /><glyph glyph-name="" unicode="Ú" d="M590 235 l0 477 l-76 0 l0 -471 q-1 -82 -47 -130 q-47 -48 -126 -49 q-79 1 -125 49 q-46 48 -47 130 l0 471 l-76 0 l0 -477 q2 -108 70 -174 q68 -65 178 -67 q110 2 179 67 q68 66 70 174 l0 0 ZM466 934 l-86 0 l-88 -153 l66 0 l108 153 Z" /><glyph glyph-name="" unicode="Û" d="M590 235 l0 477 l-76 0 l0 -471 q-1 -82 -47 -130 q-47 -48 -126 -49 q-79 1 -125 49 q-46 48 -47 130 l0 471 l-76 0 l0 -477 q2 -108 70 -174 q68 -65 178 -67 q110 2 179 67 q68 66 70 174 l0 0 ZM500 781 l-125 153 l-68 0 l-125 -153 l69 0 l90 104 l90 -104 l69 0 Z" /><glyph glyph-name="" unicode="Ù" d="M590 235 l0 477 l-76 0 l0 -471 q-1 -82 -47 -130 q-47 -48 -126 -49 q-79 1 -125 49 q-46 48 -47 130 l0 471 l-76 0 l0 -477 q2 -108 70 -174 q68 -65 178 -67 q110 2 179 67 q68 66 70 174 l0 0 ZM390 781 l-88 153 l-86 0 l108 -153 l66 0 Z" /></font>
</defs>
</svg>
